<?xml version="1.0" standalone="no"?>
<!DOCTYPE svg PUBLIC "-//W3C//DTD SVG 1.1//EN" "http://www.w3.org/Graphics/SVG/1.1/DTD/svg11.dtd" >
<svg>
<metadata>
Created by FontForge 20090914 at Fri Jun  7 10:37:08 2013
 By www-data
Copyright (c) 2008 by Process Type Foundry. All rights reserved.
</metadata>
<defs>
<font id="Knowledge-Regular" horiz-adv-x="254" >
  <font-face 
    font-family="Knowledge Regular"
    font-weight="400"
    font-stretch="normal"
    units-per-em="1000"
    panose-1="2 11 5 6 0 0 0 2 0 4"
    ascent="775"
    descent="-225"
    x-height="478"
    cap-height="666"
    bbox="-161 -250.002 1156 950"
    underline-thickness="44"
    underline-position="-56"
    unicode-range="U+0020-U+FB02"
  />
<missing-glyph horiz-adv-x="636" 
d="M85 0h466v666h-466v-666zM114 25v616h408v-616h-408zM239 239l79 81l81 -81l14 14l-80 80l80 80l-14 14l-81 -81l-79 81l-14 -14l80 -80l-80 -80z" />
    <glyph glyph-name="fi" unicode="fi" horiz-adv-x="526" 
d="M296 664c-22 8 -45.667 12 -71 12c-46.667 0 -80.667 -11.833 -102 -35.5s-32 -60.5 -32 -110.5v-52h-64v-69h64v-409h86v409h98v69h-98v51c0 28.667 5.16699 49 15.5 61s27.166 18 50.499 18c8 0 16.333 -0.666992 25 -2s16.334 -3 23.001 -5zM352 607
c0 -15.333 5.16699 -28.833 15.5 -40.5s24.5 -17.5 42.5 -17.5c17.333 0 31.166 5.83301 41.499 17.5s15.5 25.167 15.5 40.5s-5.16699 28.833 -15.5 40.5s-24.166 17.5 -41.499 17.5c-18 0 -32.167 -5.83301 -42.5 -17.5s-15.5 -25.167 -15.5 -40.5zM453 0v478h-86v-478h86
z" />
    <glyph glyph-name="fl" unicode="fl" horiz-adv-x="565" 
d="M297 664c-23.333 8 -47.332 12 -71.999 12c-46.667 0 -80.667 -11.833 -102 -35.5s-32 -60.5 -32 -110.5v-52h-64v-69h64v-409h86v409h98v69h-98v51c0 28.667 5.16699 49 15.5 61s27.166 18 50.499 18c8 0 16.333 -0.666992 25 -2s16.667 -3 24 -5zM540.001 2l-3 64.999
c-6 -1.33301 -12 -2.5 -18 -3.5s-12.667 -1.5 -20 -1.5c-18 0 -30.5 4.83301 -37.5 14.5s-10.5 23.167 -10.5 40.5v549h-86v-549c0 -38 7.83301 -68.167 23.5 -90.5s43.5 -33.5 83.5 -33.5c13.333 0 26 0.833008 38 2.5s22 3.83398 30 6.50098z" />
    <glyph glyph-name=".notdef" horiz-adv-x="636" 
d="M85 0h466v666h-466v-666zM114 25v616h408v-616h-408zM239 239l79 81l81 -81l14 14l-80 80l80 80l-14 14l-81 -81l-79 81l-14 -14l80 -80l-80 -80z" />
    <glyph glyph-name="space" unicode=" " horiz-adv-x="220" 
 />
    <glyph glyph-name="exclam" unicode="!" horiz-adv-x="249" 
d="M100 178h48l22 235v253h-91v-253zM65 52c0 -17.333 5.33301 -31.5 16 -42.5s25 -16.5 43 -16.5s32.333 5.5 43 16.5s16 25.167 16 42.5s-5.33301 31.333 -16 42s-25 16 -43 16s-32.333 -5.33301 -43 -16s-16 -24.667 -16 -42z" />
    <glyph glyph-name="quotedbl" unicode="&#x22;" horiz-adv-x="405" 
d="M270 404h66l9 154v108h-84v-108zM69 404h66l9 154v108h-84v-108z" />
    <glyph glyph-name="numbersign" unicode="#" horiz-adv-x="646" 
d="M102 0h68l44 201h174l-44 -201h66l44 201h99l14 59h-100l36 162h98l12 59h-98l41 185h-66l-41 -185h-174l41 185h-68l-40 -185h-105l-13 -59h105l-36 -162h-103l-13 -59h103zM227 260l36 162h173l-35 -162h-174z" />
    <glyph glyph-name="dollar" unicode="$" horiz-adv-x="519" 
d="M50 46c24 -12 51.1719 -22.001 81.5049 -30.001s59.833 -13.333 88.5 -16v-119h84v120c52 7.33301 93.667 26.333 125 57s47 71 47 121c0 28.667 -5.66699 53.334 -17 74.001s-26.333 38.667 -45 54s-39.834 28.5 -63.501 39.5s-47.834 20.833 -72.501 29.5
c-25.333 8.66699 -47.333 17 -66 25s-34 16.5 -46 25.5s-20.833 19.167 -26.5 30.5s-8.5 25 -8.5 41c0 34 11.667 59.333 35 76s57 25 101 25c32.667 0 64 -3.83301 94 -11.5s58 -16.834 84 -27.501l16 67c-20 9.33301 -42.833 17.5 -68.5 24.5s-53.834 11.833 -84.501 14.5
v119h-84v-119c-26 -2.66699 -49.833 -8.16699 -71.5 -16.5s-40.167 -19.5 -55.5 -33.5s-27.333 -31.167 -36 -51.5s-13 -44.166 -13 -71.499c0 -48 17 -86.5 51 -115.5s82.667 -53.833 146 -74.5c24.667 -8 46.167 -16 64.5 -24s33.666 -17 45.999 -27
s21.666 -21.5 27.999 -34.5s9.5 -28.5 9.5 -46.5c0 -35.333 -12 -61.5 -36 -78.5s-56.333 -25.5 -97 -25.5c-34 0 -67.333 4.33301 -100 13s-63 19.667 -91 33z" />
    <glyph glyph-name="percent" unicode="%" horiz-adv-x="817" 
d="M199 320c26.667 0 49.834 4.66699 69.501 14s36 22.166 49 38.499s22.667 35.333 29 57s9.5 44.5 9.5 68.5s-3.16699 46.833 -9.5 68.5s-16 40.667 -29 57s-29.333 29.166 -49 38.499s-42.834 14 -69.501 14c-26 0 -48.833 -4.66699 -68.5 -14s-36 -22.166 -49 -38.499
s-22.667 -35.333 -29 -57s-9.5 -44.5 -9.5 -68.5s3.16699 -46.833 9.5 -68.5s16 -40.667 29 -57s29.333 -29.166 49 -38.499s42.5 -14 68.5 -14zM210 0h75l326 666h-76zM199 375c-30 0 -52.167 11 -66.5 33s-21.5 52 -21.5 90s7.16699 68 21.5 90s36.5 33 66.5 33
s52.333 -11 67 -33s22 -52 22 -90s-7.33301 -68 -22 -90s-37 -33 -67 -33zM465 168c0 -24 3.16699 -46.833 9.5 -68.5s16 -40.667 29 -57s29.333 -29.166 49 -38.499s42.834 -14 69.501 -14s49.834 4.66699 69.501 14s36 22.166 49 38.499s22.667 35.333 29 57
s9.5 44.5 9.5 68.5s-3.16699 46.833 -9.5 68.5s-16 40.667 -29 57s-29.333 29.166 -49 38.499s-42.834 14 -69.501 14s-49.834 -4.66699 -69.501 -14s-36 -22.166 -49 -38.499s-22.667 -35.333 -29 -57s-9.5 -44.5 -9.5 -68.5zM534 168c0 38 7.16699 68 21.5 90
s36.5 33 66.5 33s52.333 -11 67 -33s22 -52 22 -90s-7.33301 -68 -22 -90s-37 -33 -67 -33s-52.167 11 -66.5 33s-21.5 52 -21.5 90z" />
    <glyph glyph-name="ampersand" unicode="&#x26;" horiz-adv-x="635" 
d="M46 163c0 -27.333 5.1709 -51.665 15.5039 -72.998s24.5 -39.333 42.5 -54s39.167 -26 63.5 -34s50.833 -12 79.5 -12c40 0 76 7 108 21s61 32.667 87 56l60 -67h98l-107 123c23.333 32 43 67 59 105s28.333 77 37 117l-70 16c-7.33301 -32 -17 -63.833 -29 -95.5
s-26.667 -61.5 -44 -89.5l-158 180l55 45.5c16.667 14.333 31 29.166 43 44.499s21.333 31.333 28 48s10 35 10 55c0 39.333 -14 70.333 -42 93s-65 34 -111 34c-54 0 -96.5 -13 -127.5 -39s-46.5 -62 -46.5 -108c0 -17.333 2.66699 -33.833 8 -49.5
s12.166 -30.5 20.499 -44.5s17.666 -27.5 27.999 -40.5s20.5 -24.833 30.5 -35.5l-52 -39c-16.667 -12.667 -31.334 -26.5 -44.001 -41.5s-22.834 -31.833 -30.501 -50.5s-11.5 -40.334 -11.5 -65.001zM256.004 54.001c-36.667 0 -67.333 8.50098 -92 25.501
s-37 45.167 -37 84.5c0 16.667 2.5 31.667 7.5 45s12 25.666 21 36.999s19.667 22.166 32 32.499s25.5 20.833 39.5 31.5l171 -193c-19.333 -19.333 -40.833 -34.666 -64.5 -45.999s-49.5 -17 -77.5 -17zM176.005 532.002c0 30 8.50391 51.334 25.5039 64.001
s39.5 19 67.5 19c24.667 0 44.5 -6.5 59.5 -19.5s22.5 -30.5 22.5 -52.5c0 -14 -2.83301 -27 -8.5 -39s-13.334 -23.5 -23.001 -34.5s-20.834 -21.833 -33.501 -32.5s-26.334 -21.334 -41.001 -32.001c-16.667 17.333 -32.334 36 -47.001 56s-22 43.667 -22 71z" />
    <glyph glyph-name="quotesingle" unicode="'" horiz-adv-x="204" 
d="M69 404h66l9 154v108h-84v-108z" />
    <glyph glyph-name="parenleft" unicode="(" horiz-adv-x="295" 
d="M205 -160l62 38.9961c-20.667 36.667 -38.667 71.834 -54 105.501s-28.166 67.167 -38.499 100.5s-18 67 -23 101s-7.5 70 -7.5 108s2.5 74 7.5 108s12.667 67.667 23 101s23.166 66.833 38.499 100.5s33.333 68.834 54 105.501l-62 39
c-25.333 -39.333 -47.166 -77.166 -65.499 -113.499s-33.5 -72.666 -45.5 -108.999s-21 -73.333 -27 -111s-9 -77.834 -9 -120.501s3 -82.834 9 -120.501s15 -74.667 27 -111s27.167 -72.666 45.5 -108.999s40.166 -74.166 65.499 -113.499z" />
    <glyph glyph-name="parenright" unicode=")" horiz-adv-x="295" 
d="M28 -121l62 -38.9961c24.667 39.333 46.167 77.166 64.5 113.499s33.666 72.666 45.999 108.999s21.5 73.333 27.5 111s9 77.834 9 120.501s-3 82.834 -9 120.501s-15.167 74.667 -27.5 111s-27.666 72.666 -45.999 108.999s-39.833 74.166 -64.5 113.499l-62 -39
c20 -36.667 37.667 -71.834 53 -105.501s28.166 -67.167 38.499 -100.5s18.166 -67 23.499 -101s8 -70 8 -108s-2.66699 -74 -8 -108s-13.166 -67.667 -23.499 -101s-23.166 -66.833 -38.499 -100.5s-33 -68.834 -53 -105.501z" />
    <glyph glyph-name="asterisk" unicode="*" horiz-adv-x="411" 
d="M171 322h69l-22 150l117 -96l36 60l-141 58l141 58l-36 60l-117 -96l22 150h-69l22 -150l-118 96l-35 -60l141 -58l-141 -58l35 -60l118 96z" />
    <glyph glyph-name="plus" unicode="+" horiz-adv-x="549" 
d="M235 90h79v197h182v72h-182v197h-79v-197h-182v-72h182v-197z" />
    <glyph glyph-name="comma" unicode="," horiz-adv-x="250" 
d="M88 112l-59 -252h66l97 252h-104z" />
    <glyph glyph-name="hyphen" unicode="-" horiz-adv-x="366" 
d="M60 251h245v73h-245v-73z" />
    <glyph glyph-name="period" unicode="." 
d="M68 52c0 -17.333 5.33301 -31.5 16 -42.5s25 -16.5 43 -16.5s32.333 5.5 43 16.5s16 25.167 16 42.5s-5.33301 31.333 -16 42s-25 16 -43 16s-32.333 -5.33301 -43 -16s-16 -24.667 -16 -42z" />
    <glyph glyph-name="slash" unicode="/" horiz-adv-x="446" 
d="M48 -100h83l272 776h-83z" />
    <glyph glyph-name="zero" unicode="0" horiz-adv-x="599" 
d="M299 -10c44 0 81.833 8.33301 113.5 25s57.834 40.167 78.501 70.5s35.834 66.5 45.501 108.5s14.5 88.333 14.5 139s-4.83301 97 -14.5 139s-24.834 78.167 -45.501 108.5s-46.834 53.833 -78.501 70.5s-69.5 25 -113.5 25s-81.667 -8.33301 -113 -25
s-57.333 -40.167 -78 -70.5s-35.834 -66.5 -45.501 -108.5s-14.5 -88.333 -14.5 -139s4.83301 -97 14.5 -139s24.834 -78.167 45.501 -108.5s46.667 -53.833 78 -70.5s69 -25 113 -25zM299 59c-30.667 0 -56.5 6.66699 -77.5 20s-38 32 -51 56s-22.333 52.833 -28 86.5
s-8.5 70.834 -8.5 111.501s2.83301 77.667 8.5 111s15 62 28 86s30 42.667 51 56s46.833 20 77.5 20s56.667 -6.66699 78 -20s38.5 -32 51.5 -56s22.333 -52.667 28 -86s8.5 -70.333 8.5 -111s-2.83301 -77.834 -8.5 -111.501s-15 -62.5 -28 -86.5
s-30.167 -42.667 -51.5 -56s-47.333 -20 -78 -20z" />
    <glyph glyph-name="one" unicode="1" horiz-adv-x="342" 
d="M174 0h86v666h-75l-169 -34l11 -72l147 27v-587z" />
    <glyph glyph-name="two" unicode="2" horiz-adv-x="532" 
d="M45 0h433.998v70h-346v7c0 24 4.16699 45 12.5 63s19.833 34.333 34.5 49s32.167 28.667 52.5 42l66.5 43l67.5 43.5c23 15 43.667 31.833 62 50.5s33.333 39.167 45 61.5s17.5 47.5 17.5 75.5c0 28.667 -5.33301 53.667 -16 75s-25.667 39.166 -45 53.499
s-42.666 25 -69.999 32s-57.333 10.5 -90 10.5c-39.333 0 -74 -3.66699 -104 -11s-58.667 -18.333 -86 -33l21 -67c23.333 11.333 48.333 21 75 29s55.667 12 87 12c42.667 0 77.167 -8 103.5 -24s39.5 -43 39.5 -81c0 -18.667 -3.66699 -35.167 -11 -49.5
s-17.666 -28.166 -30.999 -41.499s-30 -26.5 -50 -39.5l-67 -42.5l-83.5 -54.5c-25 -17 -46.167 -35.833 -63.5 -56.5s-30.833 -44.5 -40.5 -71.5s-14.5 -59.833 -14.5 -98.5v-47z" />
    <glyph glyph-name="three" unicode="3" horiz-adv-x="508" 
d="M37 34c30 -13.333 61.835 -23.998 95.502 -31.998s66.5 -12 98.5 -12c33.333 0 64 4.5 92 13.5s52.167 21.667 72.5 38s36.166 36.166 47.499 59.499s17 49.666 17 78.999c0 42.667 -12.333 77.334 -37 104.001s-58 45.667 -100 57c40.667 13.333 72 35.5 94 66.5
s33 65.833 33 104.5c0 52 -18.833 92.333 -56.5 121s-87.834 43 -150.501 43c-36 0 -69.5 -4 -100.5 -12s-59.833 -19.333 -86.5 -34l22 -64c22.667 11.333 46.667 20.833 72 28.5s52 11.5 80 11.5c42 0 74.833 -9.5 98.5 -28.5s35.5 -45.167 35.5 -78.5
c0 -38 -13.5 -68.333 -40.5 -91s-65.5 -34 -115.5 -34h-98v-70h101c50 0 89.667 -10.833 119 -32.5s44 -51.5 44 -89.5c0 -81.333 -49.667 -122 -149 -122c-29.333 0 -58.5 3.66699 -87.5 11s-56.167 16.666 -81.5 27.999z" />
    <glyph glyph-name="four" unicode="4" horiz-adv-x="557" 
d="M33 172h330v-172h82v172h89v68h-89v426h-89l-323 -424v-70zM117 240l246 330v-330h-246z" />
    <glyph glyph-name="five" unicode="5" horiz-adv-x="552" 
d="M58 42c28 -15.333 60.666 -27.832 97.999 -37.499s73 -14.5 107 -14.5c39.333 0 74.333 5.83301 105 17.5s56.5 27.334 77.5 47.001s36.833 42.667 47.5 69s16 54.166 16 83.499c0 32.667 -5 62 -15 88s-24.167 48.167 -42.5 66.5s-40.333 32.5 -66 42.5
s-53.834 15 -84.501 15c-28.667 0 -55 -3.5 -79 -10.5s-45 -16.167 -63 -27.5v215h319v70h-401v-339l72 -24c15.333 11.333 33.833 21.833 55.5 31.5s46.834 14.5 75.501 14.5c48.667 0 85 -13 109 -39s36 -60.667 36 -104c0 -44.667 -14.167 -80.334 -42.5 -107.001
s-69.166 -40 -122.499 -40c-32 0 -62.167 3.83301 -90.5 11.5s-58.5 19.167 -90.5 34.5z" />
    <glyph glyph-name="six" unicode="6" horiz-adv-x="556" 
d="M50 289c0 -44.667 5.16602 -85.3359 15.499 -122.003s25.666 -68.167 45.999 -94.5s45.5 -46.666 75.5 -60.999s64.333 -21.5 103 -21.5c36 0 68 6.33301 96 19s51.667 29.334 71 50.001s34.166 44.334 44.499 71.001s15.5 54.334 15.5 83.001
c0 29.333 -4.5 56.333 -13.5 81s-22 46 -39 64s-38.167 32.167 -63.5 42.5s-54 15.5 -86 15.5c-44 0 -81.833 -8.66699 -113.5 -26s-54.5 -42.333 -68.5 -75c0.666992 43.333 4.33398 83 11.001 119s17.667 66.833 33 92.5s35.833 45.5 61.5 59.5s57.5 21 95.5 21
c28 0 54 -3.5 78 -10.5s45.667 -14.833 65 -23.5l18 67c-19.333 9.33301 -42.833 17.666 -70.5 24.999s-60.167 11 -97.5 11c-53.333 0 -97.666 -10 -132.999 -30s-63.666 -47.5 -84.999 -82.5s-36.5 -76 -45.5 -123s-13.5 -97.5 -13.5 -151.5zM140.999 209.998
c0 20 3.83203 38.5039 11.499 55.5039s18.334 31.5 32.001 43.5s30 21.5 49 28.5s39.833 10.5 62.5 10.5c44 0 78 -12.667 102 -38s36 -59.333 36 -102c0 -21.333 -3 -41.333 -9 -60s-15 -34.834 -27 -48.501s-27 -24.334 -45 -32.001s-39 -11.5 -63 -11.5
c-26.667 0 -49.5 4.5 -68.5 13.5s-34.5 20.667 -46.5 35s-20.667 30.666 -26 48.999s-8 37.166 -8 56.499z" />
    <glyph glyph-name="seven" unicode="7" horiz-adv-x="469" 
d="M87 0h90l269 595v71h-413v-70h332z" />
    <glyph glyph-name="eight" unicode="8" horiz-adv-x="567" 
d="M50 182c0 -26 5.16699 -50.5 15.5 -73.5s25.5 -43.333 45.5 -61s44.333 -31.667 73 -42s61.667 -15.5 99 -15.5s70.5 5.16699 99.5 15.5s53.5 24.333 73.5 42s35.167 38 45.5 61s15.5 47.5 15.5 73.5c0 40 -11 74.167 -33 102.5s-53.667 49.5 -95 63.5
c34 16 59.667 37.667 77 65s26 57.666 26 90.999c0 25.333 -4.83301 48.666 -14.5 69.999s-23.5 39.5 -41.5 54.5s-40 26.667 -66 35s-55 12.5 -87 12.5s-60.833 -4.16699 -86.5 -12.5s-47.5 -20 -65.5 -35s-31.833 -33.167 -41.5 -54.5s-14.5 -44.666 -14.5 -69.999
c0 -33.333 8.66699 -63.666 26 -90.999s43 -49 77 -65c-41.333 -14 -73 -35.167 -95 -63.5s-33 -62.5 -33 -102.5zM283 375c-20.667 0 -38.999 3.16699 -54.999 9.5s-29.333 15 -40 26s-18.834 23.833 -24.501 38.5s-8.5 30.334 -8.5 47.001c0 34 11.333 61.5 34 82.5
s54 31.5 94 31.5s71.333 -10.5 94 -31.5s34 -48.5 34 -82.5c0 -16.667 -2.66699 -32.334 -8 -47.001s-13.5 -27.5 -24.5 -38.5s-24.5 -19.667 -40.5 -26s-34.333 -9.5 -55 -9.5zM133.001 187c0 34.667 12.999 64 38.999 88s63 36 111 36s85.167 -12 111.5 -36
s39.5 -53.333 39.5 -88c0 -40 -13.333 -71.833 -40 -95.5s-63.667 -35.5 -111 -35.5s-84.166 11.833 -110.499 35.5s-39.5 55.5 -39.5 95.5z" />
    <glyph glyph-name="nine" unicode="9" horiz-adv-x="556" 
d="M61 26c19.333 -9.33301 42.998 -17.668 70.998 -25.001s60.333 -11 97 -11c53.333 0 97.666 10.167 132.999 30.5s63.666 48 84.999 83s36.5 76 45.5 123s13.5 97.167 13.5 150.5c0 93.333 -20.167 166.5 -60.5 219.5s-99.833 79.5 -178.5 79.5
c-37.333 0 -70.166 -6.16699 -98.499 -18.5s-52.166 -28.666 -71.499 -48.999s-33.833 -44 -43.5 -71s-14.5 -55.167 -14.5 -84.5c0 -30 4.66699 -57.333 14 -82s22.833 -46 40.5 -64s38.834 -32 63.501 -42s52.667 -15 84 -15c44 0 81 8.83301 111 26.5
s53.333 42.5 70 74.5c-1.33301 -43.333 -5.16602 -83 -11.499 -119s-16.833 -66.833 -31.5 -92.5s-34.5 -45.667 -59.5 -60s-56.833 -21.5 -95.5 -21.5c-28.667 0 -55 3.33301 -79 10s-45.667 14.667 -65 24zM259.998 317.998c-49.333 0 -84.835 12.6641 -106.502 37.9971
s-32.5 59.333 -32.5 102c0 21.333 3 41.333 9 60s15.167 34.834 27.5 48.501s27.5 24.334 45.5 32.001s39 11.5 63 11.5s45.333 -4 64 -12s34.334 -19 47.001 -33s22.334 -30.167 29.001 -48.5s10 -37.5 10 -57.5c0 -20.667 -3.83301 -39.667 -11.5 -57
s-18.5 -32.166 -32.5 -44.499s-30.5 -22 -49.5 -29s-39.833 -10.5 -62.5 -10.5z" />
    <glyph glyph-name="colon" unicode=":" horiz-adv-x="249" 
d="M124 286c18 0 32.333 5.33301 43 16s16 24.667 16 42s-5.33301 31.5 -16 42.5s-25 16.5 -43 16.5s-32.333 -5.5 -43 -16.5s-16 -25.167 -16 -42.5s5.33301 -31.333 16 -42s25 -16 43 -16zM65 52c0 -17.333 5.33301 -31.5 16 -42.5s25 -16.5 43 -16.5s32.333 5.5 43 16.5
s16 25.167 16 42.5s-5.33301 31.333 -16 42s-25 16 -43 16s-32.333 -5.33301 -43 -16s-16 -24.667 -16 -42z" />
    <glyph glyph-name="semicolon" unicode=";" horiz-adv-x="266" 
d="M139 282c18.667 0 33.667 5.83301 45 17.5s17 26.167 17 43.5s-5.66699 31.666 -17 42.999s-26.333 17 -45 17c-18 0 -32.667 -5.66699 -44 -17s-17 -25.666 -17 -42.999s5.66699 -31.833 17 -43.5s26 -17.5 44 -17.5zM87 112l-60 -252h66l96 252h-102z" />
    <glyph glyph-name="less" unicode="&#x3c;" horiz-adv-x="544" 
d="M48 290l443 -200v78l-352 155l352 155v78l-443 -200v-66z" />
    <glyph glyph-name="equal" unicode="=" horiz-adv-x="549" 
d="M53 395h443v72h-443v-72zM53 179h443v72h-443v-72z" />
    <glyph glyph-name="greater" unicode="&#x3e;" horiz-adv-x="544" 
d="M53 90l443 200v66l-443 200v-78l351 -155l-351 -155v-78z" />
    <glyph glyph-name="question" unicode="?" horiz-adv-x="448" 
d="M140 176l77.001 0.000976562v27c0 18 1.16699 33.167 3.5 45.5s6.33301 23.5 12 33.5s13 19.5 22 28.5s20.167 19.167 33.5 30.5c18 14.667 34.167 28.834 48.5 42.501s26.666 27.5 36.999 41.5s18.166 29 23.499 45s8 34 8 54c0 49.333 -17 87 -51 113s-80 39 -138 39
c-33.333 0 -64.5 -3.5 -93.5 -10.5s-53.833 -15.833 -74.5 -26.5l15 -66c21.333 9.33301 43.833 17.166 67.5 23.499s48.834 9.5 75.501 9.5c34 0 61.333 -6.66699 82 -20s31 -35 31 -65c0 -14 -2.16699 -26.5 -6.5 -37.5s-10.5 -21.5 -18.5 -31.5
s-17.667 -19.833 -29 -29.5l-38 -31.5c-15.333 -12 -28.5 -23.667 -39.5 -35s-20 -23.833 -27 -37.5s-12.167 -28.834 -15.5 -45.501s-5 -36.667 -5 -60v-37zM119.001 52.001c0 -17.333 5.33301 -31.5 16 -42.5s25 -16.5 43 -16.5c18.667 0 33.167 5.5 43.5 16.5
s15.5 25.167 15.5 42.5s-5.16699 31.333 -15.5 42s-24.833 16 -43.5 16c-18 0 -32.333 -5.33301 -43 -16s-16 -24.667 -16 -42z" />
    <glyph glyph-name="at" unicode="@" horiz-adv-x="777" 
d="M42 260c0 -48.667 7.67285 -93.668 23.0059 -135.001s37.833 -77 67.5 -107s66.167 -53.333 109.5 -70s92.666 -25 147.999 -25c46.667 0 93.5 5.66699 140.5 17s88.5 26.333 124.5 45l-18 48c-32.667 -16.667 -70.167 -30.5 -112.5 -41.5s-85.166 -16.5 -128.499 -16.5
c-46 0 -87.167 6.66699 -123.5 20s-67 32.333 -92 57s-44 54.834 -57 90.501s-19.5 75.5 -19.5 119.5c0 50 8.16699 95.5 24.5 136.5s38.666 75.833 66.999 104.5s61.666 50.834 99.999 66.501s79.166 23.5 122.499 23.5c38 0 72.833 -5.5 104.5 -16.5s59 -26.667 82 -47
s41 -44.833 54 -73.5s19.5 -61 19.5 -97c0 -24 -2.5 -46.833 -7.5 -68.5s-12.333 -40.5 -22 -56.5s-21.5 -28.667 -35.5 -38s-30 -14 -48 -14c-23.333 0 -39.666 5.83301 -48.999 17.5s-14 27.834 -14 48.501c0 8 1 18 3 30l27 151
c-14.667 7.33301 -31.334 13.166 -50.001 17.499s-38 6.5 -58 6.5c-30.667 0 -57.334 -5.83301 -80.001 -17.5s-41.334 -27.334 -56.001 -47.001s-25.5 -42.667 -32.5 -69s-10.5 -53.833 -10.5 -82.5c0 -13.333 1.66699 -26.333 5 -39s8.16602 -23.834 14.499 -33.501
s14.666 -17.334 24.999 -23.001s22.5 -8.5 36.5 -8.5c28 0 51.667 9.33301 71 28s35.666 42.667 48.999 72c-1.33301 -28 8.16699 -51.667 28.5 -71s48.5 -29 84.5 -29c28 0 53.167 6 75.5 18s41.333 28.333 57 49s27.5 44.834 35.5 72.501s12 57.167 12 88.5
c0 40 -7.16699 77.167 -21.5 111.5s-35.333 64.333 -63 90s-61.167 45.667 -100.5 60s-84 21.5 -134 21.5c-55.333 0 -106.166 -9 -152.499 -27s-86.166 -43.667 -119.499 -77s-59.333 -73.666 -78 -120.999s-28 -100.333 -28 -159zM347.006 186.999
c-14 0 -23.498 5.66992 -28.498 17.0029s-7.5 24.666 -7.5 39.999c0 20.667 2.16699 40.5 6.5 59.5s11.166 35.667 20.499 50s20.833 25.666 34.5 33.999s30.167 12.5 49.5 12.5c14.667 0 27 -2 37 -6l-8 -42c-4 -23.333 -9.33301 -45 -16 -65s-14.5 -37.333 -23.5 -52
s-18.833 -26.334 -29.5 -35.001s-22.334 -13 -35.001 -13z" />
    <glyph glyph-name="A" unicode="A" horiz-adv-x="625" 
d="M17 0h89l61 175h291l62 -175h89l-248 666h-97zM313 596l120 -347h-240z" />
    <glyph glyph-name="B" unicode="B" horiz-adv-x="604" 
d="M78 0h275.001c32 -0 60.833 4.33301 86.5 13s47.834 20.834 66.501 36.501s33 34.667 43 57s15 47.166 15 74.499c0 45.333 -13.333 81.333 -40 108s-61.334 43.667 -104.001 51c41.333 14 72.166 35.5 92.499 64.5s30.5 62.5 30.5 100.5c0 49.333 -16 88.5 -48 117.5
s-78.667 43.5 -140 43.5h-277v-666zM164.001 371v225.001h171c40 0 70.333 -9.33301 91 -28s31 -44 31 -76c0 -16.667 -2.83301 -32.334 -8.5 -47.001s-14 -27.5 -25 -38.5s-24.667 -19.667 -41 -26s-34.833 -9.5 -55.5 -9.5h-163zM164.001 70.001v231h170
c48 0 83.833 -10.167 107.5 -30.5s35.5 -47.833 35.5 -82.5s-10.833 -63 -32.5 -85s-55.5 -33 -101.5 -33h-179z" />
    <glyph glyph-name="C" unicode="C" horiz-adv-x="593" 
d="M131 333c0 85.333 22.667 151.333 68 198s109 70 191 70c30 0 57.333 -2.66699 82 -8s47.667 -12 69 -20l14 71c-19.333 9.33301 -45 17.333 -77 24s-66.667 10 -104 10c-51.333 0 -97.333 -8.16699 -138 -24.5s-75.334 -39.5 -104.001 -69.5s-50.667 -66.167 -66 -108.5
s-23 -89.833 -23 -142.5s7.66699 -100.167 23 -142.5s37.333 -78.5 66 -108.5s63.334 -53.167 104.001 -69.5s86.667 -24.5 138 -24.5c37.333 0 72 3.33301 104 10s57.667 14.667 77 24l-14 71c-21.333 -8 -44.333 -14.667 -69 -20s-52 -8 -82 -8
c-82 0 -145.667 23.333 -191 70s-68 112.667 -68 198z" />
    <glyph glyph-name="D" unicode="D" horiz-adv-x="673" 
d="M79 0l237 0.00195312c46.667 0 89.5 8.16699 128.5 24.5s72.667 39.166 101 68.499s50.333 64.333 66 105s23.5 85.667 23.5 135s-7.83301 94.333 -23.5 135s-37.667 75.667 -66 105s-62 52.166 -101 68.499s-81.833 24.5 -128.5 24.5h-237v-666zM168 76.002v513.998h145
c32 0 62.333 -5.5 91 -16.5s53.5 -27.167 74.5 -48.5s37.667 -48.166 50 -80.499s18.5 -69.5 18.5 -111.5s-6.16699 -79.167 -18.5 -111.5s-29 -59.166 -50 -80.499s-45.833 -37.5 -74.5 -48.5s-59 -16.5 -91 -16.5h-145z" />
    <glyph glyph-name="E" unicode="E" horiz-adv-x="556" 
d="M78 0h430v76h-342v227h319v76h-319v211h341v76h-429v-666z" />
    <glyph glyph-name="F" unicode="F" horiz-adv-x="530" 
d="M78 0h88v282h315v77h-315v231h338v76h-426v-666z" />
    <glyph glyph-name="G" unicode="G" horiz-adv-x="654" 
d="M43 331c0 -49.333 7.33398 -94.834 22.001 -136.501s36.5 -77.834 65.5 -108.501s65.333 -54.667 109 -72s94.167 -26 151.5 -26c18 0 36.333 0.833008 55 2.5s36.834 3.83398 54.501 6.50098s34.167 5.83398 49.5 9.50098s29 7.5 41 11.5v280h-84v-226
c-16 -3.33301 -34.5 -6.16602 -55.5 -8.49902s-41.833 -3.5 -62.5 -3.5c-82.667 0 -146.334 23.667 -191.001 71s-67 113.666 -67 198.999c0 89.333 22.833 157 68.5 203s111.167 69 196.5 69c35.333 0 68.166 -3.16699 98.499 -9.5s59.5 -14.166 87.5 -23.499l13 73
c-57.333 24 -126 36 -206 36c-56 0 -105.5 -8.33301 -148.5 -25s-79.167 -40.334 -108.5 -71.001s-51.5 -67.167 -66.5 -109.5s-22.5 -89.5 -22.5 -141.5z" />
    <glyph glyph-name="H" unicode="H" horiz-adv-x="671" 
d="M78 0h88v301h339v-301h88v666h-88v-287h-339v287h-88v-666z" />
    <glyph glyph-name="I" unicode="I" 
d="M83 0h88v666h-88v-666z" />
    <glyph glyph-name="J" unicode="J" horiz-adv-x="373" 
d="M14 7c15.333 -5.33301 33.333 -9.49902 54 -12.499s40 -4.5 58 -4.5c58 0 100.833 16 128.5 48s41.5 75 41.5 129v499h-88v-500c0 -32 -7.16699 -57 -21.5 -75s-39.833 -27 -76.5 -27c-13.333 0 -27.5 1.16699 -42.5 3.5s-29.167 5.16602 -42.5 8.49902z" />
    <glyph glyph-name="K" unicode="K" horiz-adv-x="591" 
d="M78 0h88v324l295 -324h114l-317 342l313 324h-114l-291 -306v306h-88v-666z" />
    <glyph glyph-name="L" unicode="L" horiz-adv-x="510" 
d="M78 0h408v76h-320v590h-88v-666z" />
    <glyph glyph-name="M" unicode="M" horiz-adv-x="800" 
d="M722 666h-87l-235 -503l-235 503h-87v-666h83v500l194 -416h90l194 416v-500h83v666z" />
    <glyph glyph-name="N" unicode="N" horiz-adv-x="693" 
d="M78 0h85v529l365 -529h87v666h-85v-529l-365 529h-87v-666z" />
    <glyph glyph-name="O" unicode="O" horiz-adv-x="692" 
d="M43 333c0 -46 6.16699 -90 18.5 -132s31 -78.667 56 -110s56.5 -56.333 94.5 -75s82.667 -28 134 -28s96 9.33301 134 28s69.5 43.667 94.5 75s43.667 68 56 110s18.5 86 18.5 132s-6.16699 90 -18.5 132s-31 78.667 -56 110s-56.5 56.333 -94.5 75s-82.667 28 -134 28
s-96 -9.33301 -134 -28s-69.5 -43.667 -94.5 -75s-43.667 -68 -56 -110s-18.5 -86 -18.5 -132zM346 61c-37.333 0 -69.5 6.66699 -96.5 20s-49.167 32 -66.5 56s-30.333 52.667 -39 86s-13 70 -13 110s4.33301 76.667 13 110s21.667 62 39 86s39.5 42.667 66.5 56
s59.167 20 96.5 20c36.667 0 68.667 -6.66699 96 -20s49.666 -32 66.999 -56s30.333 -52.667 39 -86s13 -70 13 -110s-4.33301 -76.667 -13 -110s-21.667 -62 -39 -86s-39.666 -42.667 -66.999 -56s-59.333 -20 -96 -20z" />
    <glyph glyph-name="P" unicode="P" horiz-adv-x="586" 
d="M78 0l88 0.00195312v264h180c34 0 64.167 5.33301 90.5 16s48.5 25.167 66.5 43.5s31.667 39.666 41 63.999s14 50.166 14 77.499c0 28 -4.66699 54.167 -14 78.5s-23 45.5 -41 63.5s-40.167 32.333 -66.5 43s-56.5 16 -90.5 16h-268v-666zM166 336.002v258h170
c42 0 74.667 -11.5 98 -34.5s35 -54.5 35 -94.5s-11.667 -71.5 -35 -94.5s-56 -34.5 -98 -34.5h-170z" />
    <glyph glyph-name="Q" unicode="Q" horiz-adv-x="692" 
d="M542 -106l63 38l-72 117c39.333 32 68.5 72.667 87.5 122s28.5 103.333 28.5 162c0 46 -6.16699 90 -18.5 132s-31 78.667 -56 110s-56.5 56.333 -94.5 75s-82.667 28 -134 28s-96 -9.33301 -134 -28s-69.5 -43.667 -94.5 -75s-43.667 -68 -56 -110s-18.5 -86 -18.5 -132
s6.16699 -90 18.5 -132s31 -78.667 56 -110s56.5 -56.333 94.5 -75s82.667 -28 134 -28c45.333 0 86.333 7.66699 123 23zM346 61c-37.333 0 -69.499 6.66699 -96.499 20s-49.167 32 -66.5 56s-30.333 52.667 -39 86s-13 70 -13 110s4.33301 76.667 13 110s21.667 62 39 86
s39.5 42.667 66.5 56s59.167 20 96.5 20c36.667 0 68.667 -6.66699 96 -20s49.666 -32 66.999 -56s30.333 -52.667 39 -86s13 -70 13 -110c0 -46 -5.66699 -87.667 -17 -125s-29 -68 -53 -92l-53 87l-59 -37l54 -89c-24 -10.667 -53 -16 -87 -16z" />
    <glyph glyph-name="R" unicode="R" horiz-adv-x="645" 
d="M573 469c0 28.667 -4.49902 55 -13.499 79s-22.5 44.667 -40.5 62s-40.333 31 -67 41s-57.334 15 -92.001 15h-282v-666h88v271h163l174 -271h106l-188 279c47.333 12.667 84.5 36 111.5 70s40.5 74 40.5 120zM484.001 469c0 -38.667 -12 -69.5 -36 -92.5
s-57.333 -34.5 -100 -34.5h-182v252h182c43.333 0 76.833 -10.833 100.5 -32.5s35.5 -52.5 35.5 -92.5z" />
    <glyph glyph-name="S" unicode="S" horiz-adv-x="560" 
d="M523 178c0 30.667 -5.99902 56.667 -17.999 78s-28.333 39.5 -49 54.5s-44.667 27.667 -72 38s-56 19.833 -86 28.5c-28.667 8 -53.5 15.5 -74.5 22.5s-38.333 14.833 -52 23.5s-23.834 19.167 -30.501 31.5s-10 27.833 -10 46.5c0 39.333 13.5 66.666 40.5 81.999
s65.167 23 114.5 23c35.333 0 69.833 -4.16699 103.5 -12.5s64.5 -18.5 92.5 -30.5l17 71c-30.667 14 -63.334 24.833 -98.001 32.5s-73.334 11.5 -116.001 11.5c-75.333 0 -134.166 -14.5 -176.499 -43.5s-63.5 -75.167 -63.5 -138.5c0 -52 18.167 -92.667 54.5 -122
s91.166 -53 164.499 -71c58 -14.667 101.333 -31.5 130 -50.5s43 -46.833 43 -83.5c0 -37.333 -14.167 -64.666 -42.5 -81.999s-66.166 -26 -113.499 -26c-36 0 -72.5 4.5 -109.5 13.5s-71.833 20.167 -104.5 33.5l-20 -71c34.667 -14 72.334 -25.667 113.001 -35
s81 -14 121 -14c75.333 0 134.5 16.667 177.5 50s64.5 80 64.5 140z" />
    <glyph glyph-name="T" unicode="T" horiz-adv-x="532" 
d="M511 590v76h-490v-76h201v-590h88v590h201z" />
    <glyph glyph-name="U" unicode="U" horiz-adv-x="675" 
d="M599 666h-88.002v-437c0 -52 -15.167 -92.833 -45.5 -122.5s-73.166 -44.5 -128.499 -44.5s-98 14.833 -128 44.5s-45 70.5 -45 122.5v437h-88v-430c0 -33.333 5.5 -64.833 16.5 -94.5s27.333 -56 49 -79s48.834 -41.167 81.501 -54.5s70.667 -20 114 -20
s81.333 6.66699 114 20s60 31.5 82 54.5s38.5 49.333 49.5 79s16.5 61.167 16.5 94.5v430z" />
    <glyph glyph-name="V" unicode="V" horiz-adv-x="573" 
d="M236 0h102l225 666h-88l-188 -571l-189 571h-88z" />
    <glyph glyph-name="W" unicode="W" horiz-adv-x="855" 
d="M477 666h-98l-150 -534l-134 534h-87l180 -666h82l158 582l157 -582h83l179 666h-86l-135 -534z" />
    <glyph glyph-name="X" unicode="X" horiz-adv-x="588" 
d="M559 666h-96l-169 -259l-169 259h-96l218 -328l-224 -338h95l176 268l176 -268h95l-224 338z" />
    <glyph glyph-name="Y" unicode="Y" horiz-adv-x="547" 
d="M537 666h-92l-171 -319l-171 319h-93l220 -397v-269h88v269z" />
    <glyph glyph-name="Z" unicode="Z" horiz-adv-x="573" 
d="M525 0v76h-377l368 512v78h-452v-76h357l-368 -512v-78h472z" />
    <glyph glyph-name="bracketleft" unicode="[" horiz-adv-x="301" 
d="M273 -150v74h-104v740h104v74h-190v-888h190z" />
    <glyph glyph-name="backslash" unicode="\" horiz-adv-x="446" 
d="M315 -100h83l-272 776h-83z" />
    <glyph glyph-name="bracketright" unicode="]" horiz-adv-x="301" 
d="M218 -150v888h-190v-74h104v-740h-104v-74h190z" />
    <glyph glyph-name="asciicircum" unicode="^" horiz-adv-x="476" 
d="M277 666h-78l-159 -329h79l119 258l119 -258h78z" />
    <glyph glyph-name="underscore" unicode="_" horiz-adv-x="409" 
d="M410 -122v44h-411v-44h411z" />
    <glyph glyph-name="grave" unicode="`" horiz-adv-x="324" 
d="M166 543h81l-62 152h-107z" />
    <glyph glyph-name="a" unicode="a" horiz-adv-x="512" 
d="M446 0l0.00195312 328.998c0 54 -15.833 94 -47.5 120s-78.834 39 -141.501 39c-63.333 0 -122 -12.667 -176 -38l15 -68c23.333 10.667 47.333 18.834 72 24.501s50.667 8.5 78 8.5c38.667 0 67.334 -7.33301 86.001 -22s28 -38 28 -70v-44h-144
c-24.667 0 -47.334 -3 -68.001 -9s-38.334 -15 -53.001 -27s-26.167 -27.333 -34.5 -46s-12.5 -40.667 -12.5 -66c0 -43.333 13 -77.666 39 -102.999s62.667 -38 110 -38c38 0 71.167 7.83301 99.5 23.5s50.833 38.167 67.5 67.5v-81h82zM360.002 186.998
c0 -18.667 -3.5 -36.332 -10.5 -52.999s-16.667 -31.167 -29 -43.5s-26.833 -22 -43.5 -29s-35 -10.5 -55 -10.5c-29.333 0 -51.833 6.66699 -67.5 20s-23.5 33.666 -23.5 60.999c0 56.667 32.333 85 97 85h132v-30z" />
    <glyph glyph-name="b" unicode="b" horiz-adv-x="546" 
d="M507 239c0 34.667 -3.66602 67.168 -10.999 97.501s-18.666 56.666 -33.999 78.999s-35 40 -59 53s-52.667 19.5 -86 19.5c-38.667 0 -71 -9.16699 -97 -27.5s-46.333 -43.166 -61 -74.499v280h-86v-666h83v91c14 -30 34.667 -54.333 62 -73s60.666 -28 99.999 -28
c32.667 0 61 6.5 85 19.5s43.667 30.667 59 53s26.666 48.666 33.999 78.999s11 62.833 11 97.5zM421.001 239.001c0 -26 -2.33301 -50.002 -7 -72.002s-12 -41 -22 -57s-23 -28.5 -39 -37.5s-35.333 -13.5 -58 -13.5c-23.333 0 -43.5 4.83301 -60.5 14.5s-31 22.667 -42 39
s-19.333 35.333 -25 57s-8.5 44.834 -8.5 69.501s2.83301 47.834 8.5 69.501s14 40.667 25 57s25 29.333 42 39s37.167 14.5 60.5 14.5c22.667 0 42 -4.5 58 -13.5s29 -21.5 39 -37.5s17.333 -35 22 -57s7 -46 7 -72z" />
    <glyph glyph-name="c" unicode="c" horiz-adv-x="439" 
d="M407 458c-16.667 9.33301 -37.5 16.6631 -62.5 21.9961s-50.833 8 -77.5 8c-74.667 0 -131.334 -22 -170.001 -66s-58 -105 -58 -183s19.333 -139 58 -183s95.334 -66 170.001 -66c26.667 0 52.5 2.5 77.5 7.5s45.833 12.167 62.5 21.5l-14 65
c-15.333 -7.33301 -32.666 -13.166 -51.999 -17.499s-39.666 -6.5 -60.999 -6.5c-28.667 0 -52.834 4.33301 -72.501 13s-35.667 20.834 -48 36.501s-21.166 34.5 -26.499 56.5s-8 46.333 -8 73s2.66699 51 8 73s14.166 40.833 26.499 56.5s28.333 27.834 48 36.501
s43.834 13 72.501 13c21.333 0 41.666 -2.16699 60.999 -6.5s36.666 -10.166 51.999 -17.499z" />
    <glyph glyph-name="d" unicode="d" horiz-adv-x="546" 
d="M39 239c0 -34.667 3.66699 -67.168 11 -97.501s18.666 -56.666 33.999 -78.999s34.833 -40 58.5 -53s52.167 -19.5 85.5 -19.5c39.333 0 72.5 9.16699 99.5 27.5s47.833 42.833 62.5 73.5v-91h83v666h-86v-280c-14.667 31.333 -35 56.166 -61 74.499
s-58.333 27.5 -97 27.5c-33.333 0 -62 -6.5 -86 -19.5s-43.667 -30.667 -59 -53s-26.666 -48.666 -33.999 -78.999s-11 -62.833 -11 -97.5zM125 238.999c0 26 2.33301 50.002 7 72.002s12 41 22 57s23 28.5 39 37.5s35.333 13.5 58 13.5s42.667 -4.83301 60 -14.5
s31.5 -22.667 42.5 -39s19.333 -35.333 25 -57s8.5 -44.834 8.5 -69.501s-2.83301 -47.834 -8.5 -69.501s-14 -40.667 -25 -57s-25.167 -29.333 -42.5 -39s-37.333 -14.5 -60 -14.5s-42 4.5 -58 13.5s-29 21.5 -39 37.5s-17.333 35 -22 57s-7 46 -7 72z" />
    <glyph glyph-name="e" unicode="e" horiz-adv-x="487" 
d="M451 209v52.998c0 32.667 -3.5 62.834 -10.5 90.501s-18.167 51.5 -33.5 71.5s-35 35.667 -59 47s-53.333 17 -88 17c-36.667 0 -68.834 -6.16699 -96.501 -18.5s-50.667 -29.5 -69 -51.5s-32 -48.167 -41 -78.5s-13.5 -63.833 -13.5 -100.5s4.66699 -70.167 14 -100.5
s23.5 -56.5 42.5 -78.5s43.167 -39.167 72.5 -51.5s64 -18.5 104 -18.5c34 0 65.667 3.33301 95 10s55 15.667 77 27l-14 60c-21.333 -9.33301 -44.166 -17.166 -68.499 -23.499s-50.166 -9.5 -77.499 -9.5c-55.333 0 -94.833 13.667 -118.5 41s-36.834 65.333 -39.501 114
h324zM259 426.998c20 0 37.001 -3.49805 51.001 -10.498s25.333 -16.833 34 -29.5s15 -27.834 19 -45.501s6 -36.834 6 -57.501v-12h-242c3.33301 52 15.666 90.833 36.999 116.5s53 38.5 95 38.5z" />
    <glyph glyph-name="f" unicode="f" horiz-adv-x="298" 
d="M300 664c-10 3.33301 -21.167 6.16699 -33.5 8.5s-26.166 3.5 -41.499 3.5c-46.667 0 -80.667 -11.833 -102 -35.5s-32 -60.5 -32 -110.5v-52h-64v-69h64v-409h86v409h98v69h-98v51c0 28.667 5.16699 49 15.5 61s27.166 18 50.499 18c8 0 16.833 -0.666992 26.5 -2
s18.167 -3 25.5 -5z" />
    <glyph glyph-name="g" unicode="g" horiz-adv-x="546" 
d="M473 478l-84.001 0.00195312v-91c-15.333 34 -36.5 59.333 -63.5 76s-58.5 25 -94.5 25c-34 0 -63.167 -6.66699 -87.5 -20s-44.333 -31 -60 -53s-27 -47.5 -34 -76.5s-10.5 -59.167 -10.5 -90.5s3.5 -61.333 10.5 -90s18.167 -54 33.5 -76s35.166 -39.667 59.499 -53
s53.833 -20 88.5 -20c36 0 67.333 9 94 27s47.667 42.667 63 74v-90c0 -21.333 -2.16699 -40.5 -6.5 -57.5s-11.666 -31.833 -21.999 -44.5s-24.5 -22.334 -42.5 -29.001s-40.333 -10 -67 -10s-53 2.83301 -79 8.5s-51 13.167 -75 22.5l-13 -66c12 -4.66699 25 -9 39 -13
s28.333 -7.33301 43 -10s29.334 -4.83398 44.001 -6.50098s28.667 -2.5 42 -2.5c40 0 74 5.5 102 16.5s51 26 69 45s31 41.333 39 67s12 53.167 12 82.5v455zM387.999 248.002c0 -24 -2.99805 -46.5 -8.99805 -67.5s-14.833 -39 -26.5 -54s-25.667 -26.833 -42 -35.5
s-34.833 -13 -55.5 -13c-44 0 -76.667 15.667 -98 47s-32 72.333 -32 123c0 50 10.833 91.167 32.5 123.5s54.167 48.5 97.5 48.5c21.333 0 40.166 -4.33301 56.499 -13s30.166 -20.667 41.499 -36s20 -33.5 26 -54.5s9 -43.833 9 -68.5z" />
    <glyph glyph-name="h" unicode="h" horiz-adv-x="540" 
d="M472 0l-0.00195312 325.001c0 51.333 -12.167 91.333 -36.5 120s-63.5 43 -117.5 43c-40 0 -73.167 -9.66699 -99.5 -29s-46.166 -45 -59.499 -77v284h-86v-666h86v256c0 50 12.333 88.833 37 116.5s56 41.5 94 41.5c32.667 0 56.834 -8.83301 72.501 -26.5
s23.5 -42.834 23.5 -75.501v-312h86z" />
    <glyph glyph-name="i" unicode="i" horiz-adv-x="232" 
d="M58 607c0 -15.333 5.16699 -28.833 15.5 -40.5s24.5 -17.5 42.5 -17.5c17.333 0 31.166 5.83301 41.499 17.5s15.5 25.167 15.5 40.5s-5.16699 28.833 -15.5 40.5s-24.166 17.5 -41.499 17.5c-18 0 -32.167 -5.83301 -42.5 -17.5s-15.5 -25.167 -15.5 -40.5zM159 0v478
h-86v-478h86z" />
    <glyph glyph-name="j" unicode="j" horiz-adv-x="231" 
d="M58 607c0 -15.333 5.16699 -28.833 15.5 -40.5s24.5 -17.5 42.5 -17.5c17.333 0 31.166 5.83301 41.499 17.5s15.5 25.167 15.5 40.5s-5.16699 28.833 -15.5 40.5s-24.166 17.5 -41.499 17.5c-18 0 -32.167 -5.83301 -42.5 -17.5s-15.5 -25.167 -15.5 -40.5zM20 -115
c-7.33301 0 -14.666 0.333984 -21.999 1.00098s-14.666 2 -21.999 4l-6 -68c9.33301 -3.33301 20.166 -5.83301 32.499 -7.5s24.166 -2.5 35.499 -2.5c42 0 72.667 10.667 92 32s29 51.666 29 90.999v543h-86v-534c0 -19.333 -3.83301 -34 -11.5 -44s-21.5 -15 -41.5 -15z
" />
    <glyph glyph-name="k" unicode="k" horiz-adv-x="473" 
d="M361 0h102l-220 245l211 233h-103l-192 -219v407h-86v-666h86v230z" />
    <glyph glyph-name="l" unicode="l" horiz-adv-x="271" 
d="M246 2l-3 64.999c-6 -1.33301 -12 -2.5 -18 -3.5s-12.667 -1.5 -20 -1.5c-18 0 -30.5 4.83301 -37.5 14.5s-10.5 23.167 -10.5 40.5v549h-86v-549c0 -38 7.83301 -68.167 23.5 -90.5s43.5 -33.5 83.5 -33.5c13.333 0 26 0.833008 38 2.5s22 3.83398 30 6.50098z" />
    <glyph glyph-name="m" unicode="m" horiz-adv-x="827" 
d="M459 0v250.002c0 50 10.833 89.833 32.5 119.5s50.5 44.5 86.5 44.5c32 0 55.833 -8.83301 71.5 -26.5s23.5 -42.834 23.5 -75.501v-312h86v325c0 50.667 -12 90.5 -36 119.5s-63 43.5 -117 43.5c-40.667 0 -73.5 -10.5 -98.5 -31.5s-43.167 -46.5 -54.5 -76.5
c-10 34 -26 60.5 -48 79.5s-54.333 28.5 -97 28.5c-38 0 -69.667 -10 -95 -30s-44.333 -46 -57 -78v98h-83v-478h86v256c0 50 10.833 88.833 32.5 116.5s50.5 41.5 86.5 41.5c32 0 55.833 -8.83301 71.5 -26.5s23.5 -42.834 23.5 -75.501v-312h86z" />
    <glyph glyph-name="n" unicode="n" horiz-adv-x="540" 
d="M472 0l-0.000976562 325c0 51.333 -12.167 91.333 -36.5 120s-63.5 43 -117.5 43c-41.333 0 -75.333 -10.167 -102 -30.5s-46.667 -46.166 -60 -77.499v98h-83v-478h86v256c0 50 12.333 88.833 37 116.5s56 41.5 94 41.5c32.667 0 56.834 -8.83301 72.501 -26.5
s23.5 -42.834 23.5 -75.501v-312h86z" />
    <glyph glyph-name="o" unicode="o" horiz-adv-x="515" 
d="M475 239c0 35.333 -4.5 68.166 -13.5 98.499s-22.5 56.666 -40.5 78.999s-40.667 39.833 -68 52.5s-59 19 -95 19s-67.667 -6.33301 -95 -19s-50.166 -30.167 -68.499 -52.5s-32 -48.666 -41 -78.999s-13.5 -63.166 -13.5 -98.499s4.5 -68.166 13.5 -98.499
s22.667 -56.666 41 -78.999s41.166 -39.833 68.499 -52.5s59 -19 95 -19s67.667 6.33301 95 19s50 30.167 68 52.5s31.5 48.666 40.5 78.999s13.5 63.166 13.5 98.499zM389 239c0 -56 -10.5 -100.333 -31.5 -133s-54.167 -49 -99.5 -49s-78.666 16.5 -99.999 49.5
s-32 77.167 -32 132.5s10.667 99.5 32 132.5s54.666 49.5 99.999 49.5s78.5 -16.333 99.5 -49s31.5 -77 31.5 -133z" />
    <glyph glyph-name="p" unicode="p" horiz-adv-x="546" 
d="M317 -10c33.333 0 62 6.50098 86 19.501s43.667 30.667 59 53s26.666 48.666 33.999 78.999s11 62.833 11 97.5s-3.66699 67.167 -11 97.5s-18.666 56.666 -33.999 78.999s-35 40 -59 53s-52.333 19.5 -85 19.5c-39.333 0 -72.5 -9.16699 -99.5 -27.5
s-47.833 -43.166 -62.5 -74.499v92h-83v-656h86v269c14.667 -30.667 35 -55.167 61 -73.5s58.333 -27.5 97 -27.5zM295 59.001c-23.333 0 -43.5 4.83105 -60.5 14.498s-31 22.667 -42 39s-19.333 35.333 -25 57s-8.5 44.834 -8.5 69.501s2.83301 47.834 8.5 69.501
s14 40.667 25 57s25 29.333 42 39s37.167 14.5 60.5 14.5c22.667 0 42 -4.5 58 -13.5s29 -21.5 39 -37.5s17.333 -35 22 -57s7 -46 7 -72s-2.33301 -50 -7 -72s-12 -41 -22 -57s-23 -28.5 -39 -37.5s-35.333 -13.5 -58 -13.5z" />
    <glyph glyph-name="q" unicode="q" horiz-adv-x="546" 
d="M39 239c0 -34.667 3.66699 -67.168 11 -97.501s18.666 -56.666 33.999 -78.999s35 -40 59 -53s52.667 -19.5 86 -19.5c38.667 0 71 9.16699 97 27.5s46.333 42.833 61 73.5v-269h86v656h-83v-92c-14.667 31.333 -35.5 56.166 -62.5 74.499s-60.167 27.5 -99.5 27.5
c-33.333 0 -61.833 -6.5 -85.5 -19.5s-43.167 -30.667 -58.5 -53s-26.666 -48.666 -33.999 -78.999s-11 -62.833 -11 -97.5zM125 238.999c0 26 2.33301 50.002 7 72.002s12 41 22 57s23 28.5 39 37.5s35.333 13.5 58 13.5s42.667 -4.83301 60 -14.5s31.5 -22.667 42.5 -39
s19.333 -35.333 25 -57s8.5 -44.834 8.5 -69.501s-2.83301 -47.834 -8.5 -69.501s-14 -40.667 -25 -57s-25.167 -29.333 -42.5 -39s-37.333 -14.5 -60 -14.5s-42 4.5 -58 13.5s-29 21.5 -39 37.5s-17.333 35 -22 57s-7 46 -7 72z" />
    <glyph glyph-name="r" unicode="r" horiz-adv-x="337" 
d="M334 401v77c-6.66699 2 -13.667 3.33301 -21 4s-14.666 1 -21.999 1c-38 0 -67.333 -10.167 -88 -30.5s-35.667 -46.5 -45 -78.5v104h-85v-478h87v239c0 23.333 2.66699 45.166 8 65.499s13.5 37.833 24.5 52.5s24.833 26.167 41.5 34.5s36 12.5 58 12.5
c7.33301 0 14.666 -0.166992 21.999 -0.5s14 -1.16602 20 -2.49902z" />
    <glyph glyph-name="s" unicode="s" horiz-adv-x="426" 
d="M393 138c0 20.667 -4.00195 38.332 -12.002 52.999s-19 27.5 -33 38.5s-30.667 20.333 -50 28s-40.333 14.834 -63 21.501c-20 6 -37 11.333 -51 16s-25.667 9.83398 -35 15.501s-16.166 12.334 -20.499 20.001s-6.5 17.5 -6.5 29.5c0 23.333 8.33301 39.666 25 48.999
s40.334 14 71.001 14c26.667 0 52.334 -3 77.001 -9s47 -13 67 -21l16 62c-21.333 9.33301 -45.333 17.166 -72 23.499s-56.667 9.5 -90 9.5c-56.667 0 -100.5 -11 -131.5 -33s-46.5 -57 -46.5 -105c0 -37.333 13.167 -67 39.5 -89s70.166 -41.333 131.499 -58
c36.667 -10 62.5 -20.333 77.5 -31s22.5 -26.334 22.5 -47.001c0 -46.667 -32 -70 -96 -70c-26 0 -51.833 3.16699 -77.5 9.5s-51.167 14.5 -76.5 24.5l-19 -63c28 -11.333 57 -20.166 87 -26.499s59 -9.5 87 -9.5c55.333 0 99 12.833 131 38.5s48 62.167 48 109.5z" />
    <glyph glyph-name="t" unicode="t" horiz-adv-x="333" 
d="M298 3l-1.99902 64.001c-8 -2 -16.333 -3.66699 -25 -5s-17.334 -2 -26.001 -2c-23.333 0 -39 4.83301 -47 14.5s-12 24.167 -12 43.5v287h113v73h-113v125h-86v-125h-67v-73h67v-294c0 -40 9.33301 -70 28 -90s49.334 -30 92.001 -30c14 0 28.167 1.16699 42.5 3.5
s26.166 5.16602 35.499 8.49902z" />
    <glyph glyph-name="u" unicode="u" horiz-adv-x="535" 
d="M68 478v-326.001c0 -50 12 -89.5 36 -118.5s62 -43.5 114 -43.5c40.667 0 74.167 10.167 100.5 30.5s46.166 45.833 59.499 76.5v-97h84v478h-86v-256c0 -50 -12.167 -88.833 -36.5 -116.5s-55.166 -41.5 -92.499 -41.5c-32 0 -55.5 8.83301 -70.5 26.5
s-22.5 42.834 -22.5 75.501v312h-86z" />
    <glyph glyph-name="v" unicode="v" horiz-adv-x="437" 
d="M219 83l-127 395h-88l166 -478h97l166 478h-88z" />
    <glyph glyph-name="w" unicode="w" horiz-adv-x="694" 
d="M393 478h-93l-110 -381l-101 381h-83l140 -478h85l116 398l115 -398h85l141 478h-84l-100 -381z" />
    <glyph glyph-name="x" unicode="x" horiz-adv-x="453" 
d="M424 478h-90l-108 -169l-107 169h-90l154 -233l-163 -245h91l115 181l116 -181h91l-164 245z" />
    <glyph glyph-name="y" unicode="y" horiz-adv-x="429" 
d="M216 90l-123 388h-89l170 -480l-59 -176h86l224 656h-89z" />
    <glyph glyph-name="z" unicode="z" horiz-adv-x="448" 
d="M408 0v69h-267l262 340v69h-344v-69h245l-259 -340v-69h363z" />
    <glyph glyph-name="braceleft" unicode="{" horiz-adv-x="320" 
d="M197 170c0 36 -7.66699 64.1689 -23 84.502s-40.666 33.5 -75.999 39.5c35.333 6 60.666 19.167 75.999 39.5s23 48.5 23 84.5v183c0 21.333 4.5 37.166 13.5 47.499s23.833 15.5 44.5 15.5h42v74h-63c-40 0 -70.5 -10.5 -91.5 -31.5s-31.5 -52.833 -31.5 -95.5v-200
c0 -24 -6.16699 -43.5 -18.5 -58.5s-33.5 -22.5 -63.5 -22.5h-17v-72h17c30 0 51.167 -7.5 63.5 -22.5s18.5 -34.5 18.5 -58.5v-200c0 -42.667 10.5 -74.5 31.5 -95.5s51.5 -31.5 91.5 -31.5h63v74h-42c-20.667 0 -35.5 5.16699 -44.5 15.5s-13.5 26.166 -13.5 47.499v183z
" />
    <glyph glyph-name="bar" unicode="|" horiz-adv-x="249" 
d="M161 -250v1000h-73v-1000h73z" />
    <glyph glyph-name="braceright" unicode="}" horiz-adv-x="320" 
d="M123 -13c0 -42 -19.333 -63 -58 -63h-43v-74h64c40 0 70.5 10.5 91.5 31.5s31.5 52.833 31.5 95.5v200c0 24 6.16699 43.5 18.5 58.5s33.5 22.5 63.5 22.5h16v72h-16c-30 0 -51.167 7.5 -63.5 22.5s-18.5 34.5 -18.5 58.5v200c0 42.667 -10.5 74.5 -31.5 95.5
s-51.5 31.5 -91.5 31.5h-64v-74h43c38.667 0 58 -21 58 -63v-183c0 -36 7.66699 -64.167 23 -84.5s40.666 -33.5 75.999 -39.5c-35.333 -6 -60.666 -19.167 -75.999 -39.5s-23 -48.5 -23 -84.5v-183z" />
    <glyph glyph-name="asciitilde" unicode="~" horiz-adv-x="548" 
d="M505 379l-72.002 21.998c-3.33301 -9.33301 -6.33301 -18.166 -9 -26.499s-6 -16 -10 -23s-9 -12.5 -15 -16.5s-14 -6 -24 -6c-12 0 -25.667 3.66699 -41 11l-49 24c-17.333 8.66699 -35.166 16.667 -53.499 24s-36.166 11 -53.499 11
c-18.667 0 -34.834 -2.83301 -48.501 -8.5s-25.5 -14 -35.5 -25s-18.667 -24.333 -26 -40s-14 -33.5 -20 -53.5l72 -25c2.66699 8.66699 5.66699 17.167 9 25.5s7.33301 15.833 12 22.5s10.5 12 17.5 16s15.833 6 26.5 6c14 0 29.167 -3.66699 45.5 -11l50.5 -23.5
c17.333 -8.33301 34.833 -16.166 52.5 -23.499s35.167 -11 52.5 -11c16.667 0 31.5 4 44.5 12s24.333 18.167 34 30.5s17.834 26.333 24.501 42s12 31.167 16 46.5z" />
    <glyph glyph-name="uni00A0" unicode="&#xa0;" horiz-adv-x="220" 
 />
    <glyph glyph-name="exclamdown" unicode="&#xa1;" horiz-adv-x="249" 
d="M65 429c0 -17.333 5.33301 -31.333 16 -42s25 -16 43 -16s32.333 5.33301 43 16s16 24.667 16 42s-5.33301 31.5 -16 42.5s-25 16.5 -43 16.5s-32.333 -5.5 -43 -16.5s-16 -25.167 -16 -42.5zM148 301h-48l-21 -234v-245h91v245z" />
    <glyph glyph-name="cent" unicode="&#xa2;" horiz-adv-x="459" 
d="M224 -10l85 0.00195312v117c20.667 2 39.834 5.66699 57.501 11s33.167 11 46.5 17l-16 64c-15.333 -7.33301 -32.666 -13.333 -51.999 -18s-40.666 -7 -63.999 -7c-54 0 -92.833 14.5 -116.5 43.5s-35.5 67.833 -35.5 116.5s11.833 87.5 35.5 116.5
s62.5 43.5 116.5 43.5c23.333 0 44.666 -2.33301 63.999 -7s36.666 -10.667 51.999 -18l16 64c-16.667 7.33301 -33.334 13.5 -50.001 18.5s-34.667 8.16699 -54 9.5v115h-85v-116c-58 -8.66699 -102.333 -32.334 -133 -71.001s-46 -90.334 -46 -155.001
s15.333 -116.5 46 -155.5s75 -62.5 133 -70.5v-118z" />
    <glyph glyph-name="sterling" unicode="&#xa3;" horiz-adv-x="534" 
d="M54 278h99.999c-2.66699 -45.333 -13 -84.833 -31 -118.5s-44 -65.5 -78 -95.5v-64h435v70h-336c26 25.333 47.833 55.333 65.5 90s27.834 74 30.501 118h181v70h-180v130c0 46 9.66699 78.833 29 98.5s49.333 29.5 90 29.5c24.667 0 47.834 -2.66699 69.501 -8
s41.5 -11.666 59.5 -18.999l15 67c-19.333 9.33301 -41.833 16.666 -67.5 21.999s-53.5 8 -83.5 8c-64.667 0 -113.834 -16.5 -147.501 -49.5s-50.5 -82.833 -50.5 -149.5v-129h-101v-70z" />
    <glyph glyph-name="currency" unicode="&#xa4;" horiz-adv-x="575" 
d="M393 499c-14 9.33301 -30.166 16.5 -48.499 21.5s-37.5 7.5 -57.5 7.5s-39 -2.5 -57 -7.5s-34 -12.167 -48 -21.5l-88 88l-51 -49l82 -84c-15.333 -18 -27.166 -37.667 -35.499 -59s-12.5 -45.333 -12.5 -72s4.16699 -50.834 12.5 -72.501s20.166 -41.5 35.499 -59.5
l-82 -83l51 -49l88 87c31.333 -18.667 66.333 -28 105 -28c39.333 0 74.666 9.33301 105.999 28l88 -87l51 49l-83 83c15.333 18 27.166 37.833 35.499 59.5s12.5 45.834 12.5 72.501s-4.16699 50.667 -12.5 72s-20.166 41 -35.499 59l83 84l-51 49zM151.001 323
c0 20 3.16699 38.833 9.5 56.5s15.333 33 27 46s25.834 23.333 42.501 31s35.667 11.5 57 11.5s40.5 -3.83301 57.5 -11.5s31.333 -18 43 -31s20.667 -28.333 27 -46s9.5 -36.5 9.5 -56.5s-3.16699 -38.833 -9.5 -56.5s-15.333 -33 -27 -46s-26 -23.333 -43 -31
s-36.167 -11.5 -57.5 -11.5s-40.333 3.83301 -57 11.5s-30.834 18 -42.501 31s-20.667 28.333 -27 46s-9.5 36.5 -9.5 56.5z" />
    <glyph glyph-name="yen" unicode="&#xa5;" horiz-adv-x="521" 
d="M60 164h158v-164h86v164h157v63h-157v35l33 74h124v65h-95l120 265h-89l-136 -332l-137 332h-89l120 -265h-95v-65h124l34 -74v-35h-158v-63z" />
    <glyph glyph-name="brokenbar" unicode="&#xa6;" horiz-adv-x="249" 
d="M161 750h-73v-395h73v395zM161 -250v395h-73v-395h73z" />
    <glyph glyph-name="section" unicode="&#xa7;" horiz-adv-x="529" 
d="M483 244c0 24.667 -5.6709 46.167 -17.0039 64.5s-26.166 34.333 -44.499 48s-39 25.834 -62 36.501s-46.167 20.667 -69.5 30c-22 8.66699 -41.667 16.834 -59 24.501s-31.666 15.5 -42.999 23.5s-20 17 -26 27s-9 22.333 -9 37c0 28.667 10.667 48.667 32 60
s53 17 95 17c30 0 59.5 -3.5 88.5 -10.5s54.167 -15.167 75.5 -24.5l15 63c-26.667 11.333 -54.5 20.166 -83.5 26.499s-61.167 9.5 -96.5 9.5c-64.667 0 -115.5 -11.833 -152.5 -35.5s-55.5 -59.5 -55.5 -107.5c0 -29.333 6.83301 -53.5 20.5 -72.5
s32.167 -36.167 55.5 -51.5c-12 -7.33301 -23.667 -15.5 -35 -24.5s-21.333 -19.333 -30 -31s-15.667 -24.834 -21 -39.501s-8 -31.334 -8 -50.001c0 -24 4 -44.833 12 -62.5s19.5 -33.5 34.5 -47.5s33.667 -26.667 56 -38s47.833 -22.666 76.5 -33.999l65.5 -27
c19 -8 35 -16.333 48 -25s22.833 -18.167 29.5 -28.5s10 -22.833 10 -37.5c0 -30.667 -12.5 -53 -37.5 -67s-57.167 -21 -96.5 -21c-61.333 0 -123 14.667 -185 44l-19 -62c30.667 -14.667 63.834 -26 99.501 -34s72.5 -12 110.5 -12c29.333 0 56.833 3.66699 82.5 11
s48 17.833 67 31.5s33.833 30 44.5 49s16 40.5 16 64.5c0 28.667 -7.16699 52.5 -21.5 71.5s-33.166 35.833 -56.499 50.5c12 8 23.667 17.667 35 29s21.333 23.5 30 36.5s15.667 27 21 42s8 30.5 8 46.5zM242.996 363c24 -9.33301 45.665 -18.333 64.998 -27
s35.833 -17.667 49.5 -27s24.334 -20 32.001 -32s11.5 -26.333 11.5 -43c0 -25.333 -7.16699 -47.666 -21.5 -66.999s-30.166 -35 -47.499 -47c-11.333 5.33301 -22.5 10.166 -33.5 14.499l-33.5 13.5c-22.667 8.66699 -42.167 17.167 -58.5 25.5s-29.833 17 -40.5 26
s-18.5 19.167 -23.5 30.5s-7.5 24.666 -7.5 39.999c0 26 7.5 47.333 22.5 64s30.833 31.667 47.5 45c6 -3.33301 12.167 -6.16602 18.5 -8.49902z" />
    <glyph glyph-name="dieresis" unicode="&#xa8;" horiz-adv-x="444" 
d="M261 612c0 -14.667 4.83301 -27 14.5 -37s22.5 -15 38.5 -15s28.667 5 38 15s14 22.333 14 37s-4.66699 26.834 -14 36.501s-22 14.5 -38 14.5s-28.833 -4.83301 -38.5 -14.5s-14.5 -21.834 -14.5 -36.501zM78 612c0 -14.667 4.83301 -27 14.5 -37s22.167 -15 37.5 -15
c16.667 0 29.667 5 39 15s14 22.333 14 37s-4.66699 26.834 -14 36.501s-22.333 14.5 -39 14.5c-15.333 0 -27.833 -4.83301 -37.5 -14.5s-14.5 -21.834 -14.5 -36.501z" />
    <glyph glyph-name="copyright" unicode="&#xa9;" horiz-adv-x="769" 
d="M38 333c0 -47.333 8.33301 -91.833 25 -133.5s40.167 -78.167 70.5 -109.5s66.833 -56.166 109.5 -74.499s89.667 -27.5 141 -27.5c52 0 99.167 9.16699 141.5 27.5s78.833 43.166 109.5 74.499s54.334 67.833 71.001 109.5s25 86.167 25 133.5s-8.33301 92 -25 134
s-40.334 78.667 -71.001 110s-67.167 56 -109.5 74s-89.5 27 -141.5 27c-51.333 0 -98.333 -9 -141 -27s-79.167 -42.667 -109.5 -74s-53.833 -68 -70.5 -110s-25 -86.667 -25 -134zM693 333c0 -42 -7.33301 -81.833 -22 -119.5s-35.5 -70.667 -62.5 -99
s-59.5 -50.833 -97.5 -67.5s-80.333 -25 -127 -25c-46 0 -88 8.33301 -126 25s-70.5 39.167 -97.5 67.5s-47.833 61.333 -62.5 99s-22 77.5 -22 119.5s7.33301 81.833 22 119.5s35.5 70.667 62.5 99s59.5 50.833 97.5 67.5s80 25 126 25c46.667 0 89 -8.33301 127 -25
s70.5 -39.167 97.5 -67.5s47.833 -61.333 62.5 -99s22 -77.5 22 -119.5zM409 529c-31.333 0 -59.167 -4.83398 -83.5 -14.501s-44.833 -23.167 -61.5 -40.5s-29.167 -38 -37.5 -62s-12.5 -50.333 -12.5 -79s4.16699 -55 12.5 -79s20.833 -44.667 37.5 -62
s37.167 -30.833 61.5 -40.5s52.166 -14.5 83.499 -14.5c18 0 36.333 1.83301 55 5.5s34.667 8.83398 48 15.501l-10 48c-26.667 -10.667 -55.667 -16 -87 -16c-46 0 -80.5 12.833 -103.5 38.5s-34.5 60.5 -34.5 104.5s11.5 78.833 34.5 104.5s57.5 38.5 103.5 38.5
c15.333 0 30.333 -1.33301 45 -4s28.667 -6.66699 42 -12l10 48c-31.333 14 -65.666 21 -102.999 21z" />
    <glyph glyph-name="ordfeminine" unicode="&#xaa;" horiz-adv-x="374" 
d="M317 354l-0.000976562 216c0 37.333 -10.833 64.333 -32.5 81s-53.167 25 -94.5 25c-46.667 0 -86 -8.33301 -118 -25l11 -50c15.333 7.33301 31.333 13 48 17s34 6 52 6c24.667 0 42.834 -4.33301 54.501 -13s17.5 -23.667 17.5 -45v-28h-93c-36 0 -63.667 -8 -83 -24
s-29 -40 -29 -72c0 -30 8.66699 -53.167 26 -69.5s42 -24.5 74 -24.5c27.333 0 50.333 6 69 18s31.667 26.667 39 44v-56h59zM254.999 475c0 -10.667 -2.16797 -21 -6.50098 -31s-10.166 -19 -17.499 -27s-16.5 -14.333 -27.5 -19s-22.833 -7 -35.5 -7
c-20 0 -34.833 4.5 -44.5 13.5s-14.5 21.5 -14.5 37.5c0 34.667 21 52 63 52h83v-19zM48.998 240h277v52h-277v-52z" />
    <glyph glyph-name="guillemotleft" unicode="&#xab;" horiz-adv-x="576" 
d="M531 447h-98l-165 -204l165 -205h98l-164 205zM293 447h-98l-165 -204l165 -205h98l-164 205z" />
    <glyph glyph-name="logicalnot" unicode="&#xac;" horiz-adv-x="549" 
d="M496 90v269h-443v-72h364v-197h79z" />
    <glyph glyph-name="registered" unicode="&#xae;" horiz-adv-x="527" 
d="M43 461c0 -29.333 5.16699 -57.166 15.5 -83.499s25.166 -49.5 44.499 -69.5s42.5 -35.833 69.5 -47.5s57.167 -17.5 90.5 -17.5s63.5 5.83301 90.5 17.5s50.167 27.5 69.5 47.5s34.333 43.167 45 69.5s16 54.166 16 83.499c0 30 -5.33301 58.167 -16 84.5
s-25.667 49.333 -45 69s-42.5 35.167 -69.5 46.5s-57.167 17 -90.5 17s-63.5 -5.66699 -90.5 -17s-50.167 -26.833 -69.5 -46.5s-34.166 -42.667 -44.499 -69s-15.5 -54.5 -15.5 -84.5zM75 461c0 26 4.5 50.5 13.5 73.5s21.667 43 38 60s36 30.5 59 40.5s48.833 15 77.5 15
s54.667 -5 78 -15s43.166 -23.5 59.499 -40.5s29 -37 38 -60s13.5 -47.5 13.5 -73.5s-4.5 -50.667 -13.5 -74s-21.667 -43.5 -38 -60.5s-36.166 -30.5 -59.499 -40.5s-49.333 -15 -78 -15s-54.5 5 -77.5 15s-42.667 23.5 -59 40.5s-29 37.167 -38 60.5s-13.5 48 -13.5 74z
M349 512c0 20 -6.83301 35.666 -20.5 46.999s-32.167 17 -55.5 17h-81v-218h42v84h26l62 -84h50l-68 89c30 10.667 45 32.334 45 65.001zM307 508.999c0 -23.333 -12.667 -35 -38 -35h-35v68h36c24.667 0 37 -11 37 -33z" />
    <glyph glyph-name="macron" unicode="&#xaf;" horiz-adv-x="421" 
d="M343 570v67h-265v-67h265z" />
    <glyph glyph-name="degree" unicode="&#xb0;" horiz-adv-x="335" 
d="M40 552c0 -16.667 2.83301 -32.5 8.5 -47.5s13.834 -28.167 24.501 -39.5s24 -20.333 40 -27s34 -10 54 -10s38 3.33301 54 10s29.5 15.667 40.5 27s19.333 24.5 25 39.5s8.5 30.833 8.5 47.5s-2.83301 32.5 -8.5 47.5s-14 28.167 -25 39.5s-24.5 20.333 -40.5 27
s-34 10 -54 10s-38 -3.33301 -54 -10s-29.333 -15.667 -40 -27s-18.834 -24.5 -24.501 -39.5s-8.5 -30.833 -8.5 -47.5zM94 552c0 22 6.16699 40.833 18.5 56.5s30.5 23.5 54.5 23.5c24.667 0 43.167 -7.83301 55.5 -23.5s18.5 -34.5 18.5 -56.5s-6.16699 -40.667 -18.5 -56
s-30.833 -23 -55.5 -23c-24 0 -42.167 7.66699 -54.5 23s-18.5 34 -18.5 56z" />
    <glyph glyph-name="plusminus" unicode="&#xb1;" horiz-adv-x="549" 
d="M496 0v68h-182v184h182v71h-182v197h-79v-197h-182v-71h182v-184h-182v-68h443z" />
    <glyph glyph-name="twosuperior" unicode="&#xb2;" horiz-adv-x="359" 
d="M305 390l0.00292969 51.999h-192v4c0 10.667 2.66699 20.334 8 29.001s12.5 16.667 21.5 24s19 14.5 30 21.5s22.167 14.5 33.5 22.5l36.5 25.5c12.333 8.33301 23.5 17.5 33.5 27.5s18.333 21.333 25 34s10 27.334 10 44.001c0 32.667 -11 57.667 -33 75
s-53.667 26 -95 26c-24.667 0 -46.834 -2.66699 -66.501 -8s-37.167 -12 -52.5 -20l15 -51c12 6.66699 26.333 12.667 43 18s34 8 52 8c21.333 0 38.666 -4 51.999 -12s20 -21.333 20 -40c0 -18 -8.5 -33.833 -25.5 -47.5s-37.833 -28.167 -62.5 -43.5
c-16 -10 -30.833 -20.167 -44.5 -30.5s-25.334 -21.5 -35.001 -33.5s-17.167 -25.833 -22.5 -41.5s-8 -33.834 -8 -54.501v-29h257z" />
    <glyph glyph-name="threesuperior" unicode="&#xb3;" horiz-adv-x="347" 
d="M299 494c0 24 -6.66504 43.3301 -19.998 57.9971s-31.666 25 -54.999 31c23.333 8.66699 40.833 21.334 52.5 38.001s17.5 36.334 17.5 59.001c0 28.667 -10.333 51.667 -31 69s-51 26 -91 26c-23.333 0 -43.833 -2.33301 -61.5 -7s-35.167 -11.667 -52.5 -21l16 -49
c11.333 6 24 11.5 38 16.5s30.333 7.5 49 7.5c20.667 0 37 -4.5 49 -13.5s18 -22.167 18 -39.5c0 -18 -7 -32.5 -21 -43.5s-34 -16.5 -60 -16.5h-54v-54h55c26.667 0 47.667 -5 63 -15s23 -24.667 23 -44c0 -18.667 -6.33301 -33.167 -19 -43.5s-31.667 -15.5 -57 -15.5
c-16.667 0 -33 1.83301 -49 5.5s-31.333 8.83398 -46 15.501l-15 -47c17.333 -7.33301 36.166 -13.5 56.499 -18.5s40.166 -7.5 59.499 -7.5c41.333 0 74.166 10.167 98.499 30.5s36.5 46.5 36.5 78.5z" />
    <glyph glyph-name="acute" unicode="&#xb4;" horiz-adv-x="324" 
d="M78 543h81l88 152h-108z" />
    <glyph glyph-name="mu" unicode="&#xb5;" horiz-adv-x="567" 
d="M73 478l0.00390625 -656.001h86v89c0 40 -8.33301 74.333 -25 103c11.333 -7.33301 24.166 -13.166 38.499 -17.499s29.833 -6.5 46.5 -6.5c42.667 0 77.834 10.667 105.501 32s49.167 47 64.5 77c1.33301 -29.333 10 -54.166 26 -74.499s41 -30.5 75 -30.5
c9.33301 0 18.666 0.666992 27.999 2s16.666 3.33301 21.999 6v53h-16c-12.667 0 -22.667 1.83301 -30 5.5s-13 9 -17 16s-6.66699 15.333 -8 25s-2 20.5 -2 32.5v344h-86v-256c0 -50 -12.333 -88.833 -37 -116.5s-55.334 -41.5 -92.001 -41.5
c-34.667 0 -58.834 9.16699 -72.501 27.5s-20.5 43.166 -20.5 74.499v312h-86z" />
    <glyph glyph-name="paragraph" unicode="&#xb6;" horiz-adv-x="536" 
d="M463 -140l0.000976562 805.999h-190c-34 0 -65.667 -5.5 -95 -16.5s-55 -26.667 -77 -47s-39.333 -45.5 -52 -75.5s-19 -64 -19 -102c0 -36 5.66699 -68.667 17 -98s27.666 -54.666 48.999 -75.999s46.833 -37.833 76.5 -49.5s63.167 -17.5 100.5 -17.5v423h121v-747h69z
" />
    <glyph glyph-name="periodcentered" unicode="&#xb7;" 
d="M68 273c0 -17.333 5.33301 -31.5 16 -42.5s25 -16.5 43 -16.5s32.333 5.5 43 16.5s16 25.167 16 42.5s-5.33301 31.5 -16 42.5s-25 16.5 -43 16.5s-32.333 -5.5 -43 -16.5s-16 -25.167 -16 -42.5z" />
    <glyph glyph-name="cedilla" unicode="&#xb8;" horiz-adv-x="310" 
d="M232 -108c0 11.333 -2.5 20.834 -7.5 28.501s-11.833 13.834 -20.5 18.501s-18.667 8 -30 10s-23.333 3.33301 -36 4l10 47h-44l-20 -82l26.5 -2c9 -0.666992 17 -2 24 -4s12.667 -4.83301 17 -8.5s6.5 -8.83398 6.5 -15.501s-2.33301 -12 -7 -16
s-10.834 -7.16699 -18.501 -9.5s-16.167 -4 -25.5 -5s-19 -1.83301 -29 -2.5l3 -43c20.667 0.666992 40.334 2.66699 59.001 6s34.667 8.16602 48 14.499s24 14.333 32 24s12 21.5 12 35.5z" />
    <glyph glyph-name="onesuperior" unicode="&#xb9;" horiz-adv-x="238" 
d="M191 392v378h-56l-97 -19l5 -55l82 14v-318h66z" />
    <glyph glyph-name="ordmasculine" unicode="&#xba;" horiz-adv-x="386" 
d="M338 512c0 24 -3 46 -9 66s-15.167 37.167 -27.5 51.5s-27.5 25.666 -45.5 33.999s-39 12.5 -63 12.5s-45 -4.16699 -63 -12.5s-33.167 -19.666 -45.5 -33.999s-21.5 -31.5 -27.5 -51.5s-9 -42 -9 -66s3 -46 9 -66s15 -37.167 27 -51.5s27.167 -25.666 45.5 -33.999
s39.5 -12.5 63.5 -12.5s45.167 4.16699 63.5 12.5s33.5 19.666 45.5 33.999s21 31.5 27 51.5s9 42 9 66zM276 512c0 -36 -6.66699 -64.167 -20 -84.5s-34.333 -30.5 -63 -30.5s-49.667 10.167 -63 30.5s-20 48.5 -20 84.5c0 35.333 6.66699 63.166 20 83.499
s34.333 30.5 63 30.5s49.667 -10.167 63 -30.5s20 -48.166 20 -83.499zM59 240h268v52h-268v-52z" />
    <glyph glyph-name="guillemotright" unicode="&#xbb;" horiz-adv-x="576" 
d="M381 447h-98l164 -204l-164 -205h98l165 205zM143 447h-98l164 -204l-164 -205h98l165 205z" />
    <glyph glyph-name="onequarter" unicode="&#xbc;" horiz-adv-x="766" 
d="M574 666h-69l-346 -666h70zM201 288v378h-56l-97 -19l5 -55l82 14v-318h66zM719 93v50h-49v236h-69l-179 -235v-51h185v-93h63v93h49zM607 143h-125l125 168v-168z" />
    <glyph glyph-name="onehalf" unicode="&#xbd;" horiz-adv-x="801" 
d="M574 666h-69l-346 -666h70zM201 288v378h-56l-97 -19l5 -55l82 14v-318h66zM747 0l0.00292969 51.999h-192v4c0 10.667 2.66699 20.334 8 29.001s12.5 16.667 21.5 24s19 14.5 30 21.5s22.167 14.5 33.5 22.5l36.5 25.5c12.333 8.33301 23.5 17.5 33.5 27.5
s18.333 21.333 25 34s10 27.334 10 44.001c0 32.667 -11 57.667 -33 75s-53.667 26 -95 26c-24.667 0 -46.834 -2.66699 -66.501 -8s-37.167 -12 -52.5 -20l15 -51c12 6.66699 26.333 12.667 43 18s34 8 52 8c21.333 0 38.666 -4 51.999 -12s20 -21.333 20 -40
c0 -18 -8.5 -33.833 -25.5 -47.5s-37.833 -28.167 -62.5 -43.5c-16 -10 -30.833 -20.167 -44.5 -30.5s-25.334 -21.5 -35.001 -33.5s-17.167 -25.833 -22.5 -41.5s-8 -33.834 -8 -54.501v-29h257z" />
    <glyph glyph-name="threequarters" unicode="&#xbe;" horiz-adv-x="804" 
d="M611 666h-69l-346 -666h70zM756 93v50h-49v236h-69l-179 -235v-51h185v-93h63v93h49zM644 143h-125l125 168v-168zM297 390c0 24 -6.66504 43.3301 -19.998 57.9971s-31.666 25 -54.999 31c23.333 8.66699 40.833 21.334 52.5 38.001s17.5 36.334 17.5 59.001
c0 28.667 -10.333 51.667 -31 69s-51 26 -91 26c-23.333 0 -43.833 -2.33301 -61.5 -7s-35.167 -11.667 -52.5 -21l16 -49c11.333 6 24 11.5 38 16.5s30.333 7.5 49 7.5c20.667 0 37 -4.5 49 -13.5s18 -22.167 18 -39.5c0 -18 -7 -32.5 -21 -43.5s-34 -16.5 -60 -16.5h-54
v-54h55c26.667 0 47.667 -5 63 -15s23 -24.667 23 -44c0 -18.667 -6.33301 -33.167 -19 -43.5s-31.667 -15.5 -57 -15.5c-16.667 0 -33 1.83301 -49 5.5s-31.333 8.83398 -46 15.501l-15 -47c17.333 -7.33301 36.166 -13.5 56.499 -18.5s40.166 -7.5 59.499 -7.5
c41.333 0 74.166 10.167 98.499 30.5s36.5 46.5 36.5 78.5z" />
    <glyph glyph-name="questiondown" unicode="&#xbf;" horiz-adv-x="448" 
d="M313 307l-77.001 -0.000976562v-22c0 -18 -1.16699 -33.167 -3.5 -45.5s-6.33301 -23.5 -12 -33.5s-13 -19.667 -22 -29s-20.167 -19.333 -33.5 -30c-18 -14.667 -34.167 -28.834 -48.5 -42.501s-26.666 -27.5 -36.999 -41.5s-18.166 -29 -23.499 -45s-8 -34 -8 -54
c0 -49.333 17 -87 51 -113s80 -39 138 -39c33.333 0 64.5 3.5 93.5 10.5s53.833 15.833 74.5 26.5l-15 66c-21.333 -9.33301 -43.833 -17.166 -67.5 -23.499s-48.834 -9.5 -75.501 -9.5c-34 0 -61.333 6.66699 -82 20s-31 35 -31 65c0 14 2.16699 26.5 6.5 37.5
s10.5 21.5 18.5 31.5s17.667 19.833 29 29.5l38 31.5c15.333 12 28.5 23.667 39.5 35s20 23.833 27 37.5s12.167 28.834 15.5 45.501s5 36.667 5 60v32zM333.999 428.999c0 17.333 -5.33301 31.5 -16 42.5s-25 16.5 -43 16.5c-18.667 0 -33.167 -5.5 -43.5 -16.5
s-15.5 -25.167 -15.5 -42.5s5.16699 -31.333 15.5 -42s24.833 -16 43.5 -16c18 0 32.333 5.33301 43 16s16 24.667 16 42z" />
    <glyph glyph-name="Agrave" unicode="&#xc0;" horiz-adv-x="625" 
d="M17 0h89l61 175h291l62 -175h89l-248 666h-97zM313 596l120 -347h-240zM346 730l-83 132h-113l115 -132h81z" />
    <glyph glyph-name="Aacute" unicode="&#xc1;" horiz-adv-x="625" 
d="M17 0h89l61 175h291l62 -175h89l-248 666h-97zM313 596l120 -347h-240zM471 862h-113l-83 -132h82z" />
    <glyph glyph-name="Acircumflex" unicode="&#xc2;" horiz-adv-x="625" 
d="M17 0h89l61 175h291l62 -175h89l-248 666h-97zM313 596l120 -347h-240zM354 862h-83l-113 -132h83l72 85l73 -85h83z" />
    <glyph glyph-name="Atilde" unicode="&#xc3;" horiz-adv-x="625" 
d="M17 0h89l61 175h291l62 -175h89l-248 666h-97zM313 596l120 -347h-240zM426 849c-4 -11.333 -9.00098 -21.8311 -15.001 -31.498s-16 -14.5 -30 -14.5c-8.66699 0 -18.334 2.33301 -29.001 7l-34 15c-12 5.33301 -24.333 10.333 -37 15s-25 7 -37 7
c-27.333 0 -48.333 -7.83301 -63 -23.5s-26.667 -38.167 -36 -67.5l58 -21c5.33301 13.333 11 24.5 17 33.5s15.667 13.5 29 13.5c10 0 20.833 -2.33301 32.5 -7s23.834 -9.83398 36.501 -15.501s25.334 -10.834 38.001 -15.501s24.667 -7 36 -7
c12.667 0 23.667 2.33301 33 7s17.5 11.167 24.5 19.5s13.167 18 18.5 29s10.333 22.833 15 35.5z" />
    <glyph glyph-name="Adieresis" unicode="&#xc4;" horiz-adv-x="625" 
d="M17 0h89l61 175h291l62 -175h89l-248 666h-97zM313 596l120 -347h-240zM358 794c0 -15.333 4.66699 -27.666 14 -36.999s22 -14 38 -14c16.667 0 29.667 4.66699 39 14s14 21.666 14 36.999s-4.66699 27.666 -14 36.999s-22.333 14 -39 14
c-16 0 -28.667 -4.66699 -38 -14s-14 -21.666 -14 -36.999zM163 794c0 -15.333 4.66699 -27.666 14 -36.999s22 -14 38 -14c16.667 0 29.667 4.66699 39 14s14 21.666 14 36.999s-4.66699 27.666 -14 36.999s-22.333 14 -39 14c-16 0 -28.667 -4.66699 -38 -14
s-14 -21.666 -14 -36.999z" />
    <glyph glyph-name="Aring" unicode="&#xc5;" horiz-adv-x="625" 
d="M406 726c0 22.667 -7.66895 42.167 -23.002 58.5s-38.666 24.5 -69.999 24.5s-54.666 -8.16699 -69.999 -24.5s-23 -35.833 -23 -58.5c0 -15.333 3.5 -28.833 10.5 -40.5s17.167 -20.5 30.5 -26.5l-244 -659h89l61 175h291l62 -175h89l-246 659
c14 6 24.667 14.833 32 26.5s11 25.167 11 40.5zM263.998 726c0 15.333 4.33301 27 13 35s20.667 12 36 12s27.333 -4 36 -12s13 -19.667 13 -35s-4.33301 -27 -13 -35s-20.667 -12 -36 -12s-27.333 4 -36 12s-13 19.667 -13 35zM312.998 595l120 -346h-240z" />
    <glyph glyph-name="AE" unicode="&#xc6;" horiz-adv-x="850" 
d="M802 666h-537l-248 -666h89l62 176h289l63 -176h282v76h-227l-80 230h284v76h-311l-73 208h407v76zM313 598l120 -349h-240z" />
    <glyph glyph-name="Ccedilla" unicode="&#xc7;" horiz-adv-x="593" 
d="M460 -108c0 10.667 -2.50195 19.835 -7.50195 27.502s-11.667 13.834 -20 18.501s-18.166 8.16699 -29.499 10.5s-23.333 3.83301 -36 4.5l9 35c36.667 0.666992 70.834 4.16699 102.501 10.5s57.167 14.166 76.5 23.499l-14 71c-21.333 -8 -44.333 -14.667 -69 -20
s-52 -8 -82 -8c-82 0 -145.667 23.333 -191 70s-68 112.667 -68 198s22.667 151.333 68 198s109 70 191 70c30 0 57.333 -2.66699 82 -8s47.667 -12 69 -20l14 71c-19.333 9.33301 -45 17.333 -77 24s-66.667 10 -104 10c-51.333 0 -97.333 -8.16699 -138 -24.5
s-75.334 -39.5 -104.001 -69.5s-50.667 -66.167 -66 -108.5s-23 -89.833 -23 -142.5c0 -48.667 6.5 -93 19.5 -133s31.833 -74.667 56.5 -104s54.667 -53 90 -71s75.333 -29.333 120 -34l-21 -73l27 -2c9.33301 -0.666992 17.833 -2 25.5 -4s13.834 -4.83301 18.501 -8.5
s7 -8.83398 7 -15.501s-2.33301 -12 -7 -16s-10.834 -7.16699 -18.501 -9.5s-16.167 -4 -25.5 -5s-19 -1.83301 -29 -2.5l3 -43c20.667 0.666992 40.334 2.66699 59.001 6s34.667 8.16602 48 14.499s24 14.333 32 24s12 21.5 12 35.5z" />
    <glyph glyph-name="Egrave" unicode="&#xc8;" horiz-adv-x="556" 
d="M354 730l-83 132h-113l115 -132h81zM78 0h430v76h-342v227h319v76h-319v211h341v76h-429v-666z" />
    <glyph glyph-name="Eacute" unicode="&#xc9;" horiz-adv-x="556" 
d="M78 0h430v76h-342v227h319v76h-319v211h341v76h-429v-666zM433 862h-113l-83 -132h82z" />
    <glyph glyph-name="Ecircumflex" unicode="&#xca;" horiz-adv-x="556" 
d="M338 862h-83l-113 -132h83l72 85l73 -85h83zM78 0h430v76h-342v227h319v76h-319v211h341v76h-429v-666z" />
    <glyph glyph-name="Edieresis" unicode="&#xcb;" horiz-adv-x="556" 
d="M78 0h430v76h-342v227h319v76h-319v211h341v76h-429v-666zM343 794c0 -15.333 4.66699 -27.666 14 -36.999s22 -14 38 -14c16.667 0 29.667 4.66699 39 14s14 21.666 14 36.999s-4.66699 27.666 -14 36.999s-22.333 14 -39 14c-16 0 -28.667 -4.66699 -38 -14
s-14 -21.666 -14 -36.999zM148 794c0 -15.333 4.66699 -27.666 14 -36.999s22 -14 38 -14c16.667 0 29.667 4.66699 39 14s14 21.666 14 36.999s-4.66699 27.666 -14 36.999s-22.333 14 -39 14c-16 0 -28.667 -4.66699 -38 -14s-14 -21.666 -14 -36.999z" />
    <glyph glyph-name="Igrave" unicode="&#xcc;" 
d="M83 0h88v666h-88v-666zM168 730l-83 132h-113l115 -132h81z" />
    <glyph glyph-name="Iacute" unicode="&#xcd;" 
d="M83 0h88v666h-88v-666zM284 862h-113l-83 -132h82z" />
    <glyph glyph-name="Icircumflex" unicode="&#xce;" 
d="M83 0h88v666h-88v-666zM169 862h-83l-113 -132h83l72 85l73 -85h83z" />
    <glyph glyph-name="Idieresis" unicode="&#xcf;" 
d="M83 0h88v666h-88v-666zM174 794c0 -15.333 4.66699 -27.666 14 -36.999s22 -14 38 -14c16.667 0 29.667 4.66699 39 14s14 21.666 14 36.999s-4.66699 27.666 -14 36.999s-22.333 14 -39 14c-16 0 -28.667 -4.66699 -38 -14s-14 -21.666 -14 -36.999zM-21 794
c0 -15.333 4.66699 -27.666 14 -36.999s22 -14 38 -14c16.667 0 29.667 4.66699 39 14s14 21.666 14 36.999s-4.66699 27.666 -14 36.999s-22.333 14 -39 14c-16 0 -28.667 -4.66699 -38 -14s-14 -21.666 -14 -36.999z" />
    <glyph glyph-name="Eth" unicode="&#xd0;" horiz-adv-x="689" 
d="M27 296l67 0.00195312v-296h237c46.667 0 89.5 8.16699 128.5 24.5s72.667 39.166 101 68.499s50.333 64.333 66 105s23.5 85.667 23.5 135s-7.83301 94.333 -23.5 135s-37.667 75.667 -66 105s-62 52.166 -101 68.499s-81.833 24.5 -128.5 24.5h-237v-295h-67v-75z
M183 76.002v219.998h196v75h-196v219h145c32 0 62.333 -5.5 91 -16.5s53.5 -27.167 74.5 -48.5s37.667 -48.166 50 -80.499s18.5 -69.5 18.5 -111.5s-6.16699 -79.167 -18.5 -111.5s-29 -59.166 -50 -80.499s-45.833 -37.5 -74.5 -48.5s-59 -16.5 -91 -16.5h-145z" />
    <glyph glyph-name="Ntilde" unicode="&#xd1;" horiz-adv-x="693" 
d="M459 849c-4 -11.333 -9.00098 -21.8311 -15.001 -31.498s-16 -14.5 -30 -14.5c-8.66699 0 -18.334 2.33301 -29.001 7l-34 15c-12 5.33301 -24.333 10.333 -37 15s-25 7 -37 7c-27.333 0 -48.333 -7.83301 -63 -23.5s-26.667 -38.167 -36 -67.5l58 -21
c5.33301 13.333 11 24.5 17 33.5s15.667 13.5 29 13.5c10 0 20.833 -2.33301 32.5 -7s23.834 -9.83398 36.501 -15.501s25.334 -10.834 38.001 -15.501s24.667 -7 36 -7c12.667 0 23.667 2.33301 33 7s17.5 11.167 24.5 19.5s13.167 18 18.5 29s10.333 22.833 15 35.5z
M77.999 0.00195312h85v529l365 -529h87v666h-85v-529l-365 529h-87v-666z" />
    <glyph glyph-name="Ograve" unicode="&#xd2;" horiz-adv-x="692" 
d="M392 730l-83 132h-113l115 -132h81zM43 333c0 -46 6.16699 -90 18.5 -132s31 -78.667 56 -110s56.5 -56.333 94.5 -75s82.667 -28 134 -28s96 9.33301 134 28s69.5 43.667 94.5 75s43.667 68 56 110s18.5 86 18.5 132s-6.16699 90 -18.5 132s-31 78.667 -56 110
s-56.5 56.333 -94.5 75s-82.667 28 -134 28s-96 -9.33301 -134 -28s-69.5 -43.667 -94.5 -75s-43.667 -68 -56 -110s-18.5 -86 -18.5 -132zM346 61c-37.333 0 -69.5 6.66699 -96.5 20s-49.167 32 -66.5 56s-30.333 52.667 -39 86s-13 70 -13 110s4.33301 76.667 13 110
s21.667 62 39 86s39.5 42.667 66.5 56s59.167 20 96.5 20c36.667 0 68.667 -6.66699 96 -20s49.666 -32 66.999 -56s30.333 -52.667 39 -86s13 -70 13 -110s-4.33301 -76.667 -13 -110s-21.667 -62 -39 -86s-39.666 -42.667 -66.999 -56s-59.333 -20 -96 -20z" />
    <glyph glyph-name="Oacute" unicode="&#xd3;" horiz-adv-x="692" 
d="M493 862h-113l-83 -132h82zM43 333c0 -46 6.16699 -90 18.5 -132s31 -78.667 56 -110s56.5 -56.333 94.5 -75s82.667 -28 134 -28s96 9.33301 134 28s69.5 43.667 94.5 75s43.667 68 56 110s18.5 86 18.5 132s-6.16699 90 -18.5 132s-31 78.667 -56 110
s-56.5 56.333 -94.5 75s-82.667 28 -134 28s-96 -9.33301 -134 -28s-69.5 -43.667 -94.5 -75s-43.667 -68 -56 -110s-18.5 -86 -18.5 -132zM346 61c-37.333 0 -69.5 6.66699 -96.5 20s-49.167 32 -66.5 56s-30.333 52.667 -39 86s-13 70 -13 110s4.33301 76.667 13 110
s21.667 62 39 86s39.5 42.667 66.5 56s59.167 20 96.5 20c36.667 0 68.667 -6.66699 96 -20s49.666 -32 66.999 -56s30.333 -52.667 39 -86s13 -70 13 -110s-4.33301 -76.667 -13 -110s-21.667 -62 -39 -86s-39.666 -42.667 -66.999 -56s-59.333 -20 -96 -20z" />
    <glyph glyph-name="Ocircumflex" unicode="&#xd4;" horiz-adv-x="692" 
d="M387 862h-83l-113 -132h83l72 85l73 -85h83zM43 333c0 -46 6.16699 -90 18.5 -132s31 -78.667 56 -110s56.5 -56.333 94.5 -75s82.667 -28 134 -28s96 9.33301 134 28s69.5 43.667 94.5 75s43.667 68 56 110s18.5 86 18.5 132s-6.16699 90 -18.5 132s-31 78.667 -56 110
s-56.5 56.333 -94.5 75s-82.667 28 -134 28s-96 -9.33301 -134 -28s-69.5 -43.667 -94.5 -75s-43.667 -68 -56 -110s-18.5 -86 -18.5 -132zM346 61c-37.333 0 -69.5 6.66699 -96.5 20s-49.167 32 -66.5 56s-30.333 52.667 -39 86s-13 70 -13 110s4.33301 76.667 13 110
s21.667 62 39 86s39.5 42.667 66.5 56s59.167 20 96.5 20c36.667 0 68.667 -6.66699 96 -20s49.666 -32 66.999 -56s30.333 -52.667 39 -86s13 -70 13 -110s-4.33301 -76.667 -13 -110s-21.667 -62 -39 -86s-39.666 -42.667 -66.999 -56s-59.333 -20 -96 -20z" />
    <glyph glyph-name="Otilde" unicode="&#xd5;" horiz-adv-x="692" 
d="M43 333c0 -46 6.16699 -90 18.5 -132s31 -78.667 56 -110s56.5 -56.333 94.5 -75s82.667 -28 134 -28s96 9.33301 134 28s69.5 43.667 94.5 75s43.667 68 56 110s18.5 86 18.5 132s-6.16699 90 -18.5 132s-31 78.667 -56 110s-56.5 56.333 -94.5 75s-82.667 28 -134 28
s-96 -9.33301 -134 -28s-69.5 -43.667 -94.5 -75s-43.667 -68 -56 -110s-18.5 -86 -18.5 -132zM346 61c-37.333 0 -69.5 6.66699 -96.5 20s-49.167 32 -66.5 56s-30.333 52.667 -39 86s-13 70 -13 110s4.33301 76.667 13 110s21.667 62 39 86s39.5 42.667 66.5 56
s59.167 20 96.5 20c36.667 0 68.667 -6.66699 96 -20s49.666 -32 66.999 -56s30.333 -52.667 39 -86s13 -70 13 -110s-4.33301 -76.667 -13 -110s-21.667 -62 -39 -86s-39.666 -42.667 -66.999 -56s-59.333 -20 -96 -20zM458 849
c-4 -11.333 -9.00098 -21.8311 -15.001 -31.498s-16 -14.5 -30 -14.5c-8.66699 0 -18.334 2.33301 -29.001 7l-34 15c-12 5.33301 -24.333 10.333 -37 15s-25 7 -37 7c-27.333 0 -48.333 -7.83301 -63 -23.5s-26.667 -38.167 -36 -67.5l58 -21
c5.33301 13.333 11 24.5 17 33.5s15.667 13.5 29 13.5c10 0 20.833 -2.33301 32.5 -7s23.834 -9.83398 36.501 -15.501s25.334 -10.834 38.001 -15.501s24.667 -7 36 -7c12.667 0 23.667 2.33301 33 7s17.5 11.167 24.5 19.5s13.167 18 18.5 29s10.333 22.833 15 35.5z" />
    <glyph glyph-name="Odieresis" unicode="&#xd6;" horiz-adv-x="692" 
d="M43 333c0 -46 6.16699 -90 18.5 -132s31 -78.667 56 -110s56.5 -56.333 94.5 -75s82.667 -28 134 -28s96 9.33301 134 28s69.5 43.667 94.5 75s43.667 68 56 110s18.5 86 18.5 132s-6.16699 90 -18.5 132s-31 78.667 -56 110s-56.5 56.333 -94.5 75s-82.667 28 -134 28
s-96 -9.33301 -134 -28s-69.5 -43.667 -94.5 -75s-43.667 -68 -56 -110s-18.5 -86 -18.5 -132zM346 61c-37.333 0 -69.5 6.66699 -96.5 20s-49.167 32 -66.5 56s-30.333 52.667 -39 86s-13 70 -13 110s4.33301 76.667 13 110s21.667 62 39 86s39.5 42.667 66.5 56
s59.167 20 96.5 20c36.667 0 68.667 -6.66699 96 -20s49.666 -32 66.999 -56s30.333 -52.667 39 -86s13 -70 13 -110s-4.33301 -76.667 -13 -110s-21.667 -62 -39 -86s-39.666 -42.667 -66.999 -56s-59.333 -20 -96 -20zM391 794c0 -15.333 4.66699 -27.666 14 -36.999
s22 -14 38 -14c16.667 0 29.667 4.66699 39 14s14 21.666 14 36.999s-4.66699 27.666 -14 36.999s-22.333 14 -39 14c-16 0 -28.667 -4.66699 -38 -14s-14 -21.666 -14 -36.999zM196 794c0 -15.333 4.66699 -27.666 14 -36.999s22 -14 38 -14c16.667 0 29.667 4.66699 39 14
s14 21.666 14 36.999s-4.66699 27.666 -14 36.999s-22.333 14 -39 14c-16 0 -28.667 -4.66699 -38 -14s-14 -21.666 -14 -36.999z" />
    <glyph glyph-name="multiply" unicode="&#xd7;" horiz-adv-x="526" 
d="M421 113l52 52l-159 158l158 157l-52 53l-157 -159l-158 159l-52 -52l158 -158l-158 -157l53 -53l157 159z" />
    <glyph glyph-name="Oslash" unicode="&#xd8;" horiz-adv-x="692" 
d="M43 333c0 -65.333 11.833 -125.167 35.5 -179.5s60.5 -96.5 110.5 -126.5l-46 -111h62l36 88c15.333 -5.33301 31.833 -9.33301 49.5 -12s36.167 -4 55.5 -4c51.333 0 96 9.33301 134 28s69.5 43.667 94.5 75s43.667 68 56 110s18.5 86 18.5 132c0 32 -3 63.167 -9 93.5
s-15 58.666 -27 84.999s-27.167 50.333 -45.5 72s-39.833 39.834 -64.5 54.501l47 112h-62l-37 -89c-32 11.333 -67 17 -105 17c-51.333 0 -96 -9.33301 -134 -28s-69.5 -43.667 -94.5 -75s-43.667 -68 -56 -110s-18.5 -86 -18.5 -132zM131 332.999
c0 40 4.33203 76.667 12.999 110s21.667 62 39 86s39.5 42.667 66.5 56s59.167 20 96.5 20c14.667 0 28.334 -1.16699 41.001 -3.5s24.667 -5.5 36 -9.5l-204 -492c-30 23.333 -52.167 55 -66.5 95s-21.5 86 -21.5 138zM345.999 60.999c-28.667 0 -54.001 4 -76.001 12
l203 492c30 -23.333 52.167 -55 66.5 -95s21.5 -85.667 21.5 -137c0 -40 -4.33301 -76.667 -13 -110s-21.667 -62 -39 -86s-39.666 -42.667 -66.999 -56s-59.333 -20 -96 -20z" />
    <glyph glyph-name="Ugrave" unicode="&#xd9;" horiz-adv-x="675" 
d="M396 730l-83 132h-113l115 -132h81zM599 666h-88.002v-437c0 -52 -15.167 -92.833 -45.5 -122.5s-73.166 -44.5 -128.499 -44.5s-98 14.833 -128 44.5s-45 70.5 -45 122.5v437h-88v-430c0 -33.333 5.5 -64.833 16.5 -94.5s27.333 -56 49 -79s48.834 -41.167 81.501 -54.5
s70.667 -20 114 -20s81.333 6.66699 114 20s60 31.5 82 54.5s38.5 49.333 49.5 79s16.5 61.167 16.5 94.5v430z" />
    <glyph glyph-name="Uacute" unicode="&#xda;" horiz-adv-x="675" 
d="M599 666h-88.002v-437c0 -52 -15.167 -92.833 -45.5 -122.5s-73.166 -44.5 -128.499 -44.5s-98 14.833 -128 44.5s-45 70.5 -45 122.5v437h-88v-430c0 -33.333 5.5 -64.833 16.5 -94.5s27.333 -56 49 -79s48.834 -41.167 81.501 -54.5s70.667 -20 114 -20
s81.333 6.66699 114 20s60 31.5 82 54.5s38.5 49.333 49.5 79s16.5 61.167 16.5 94.5v430zM474.998 862h-113l-83 -132h82z" />
    <glyph glyph-name="Ucircumflex" unicode="&#xdb;" horiz-adv-x="675" 
d="M378 862h-83l-113 -132h83l72 85l73 -85h83zM599 666h-88.002v-437c0 -52 -15.167 -92.833 -45.5 -122.5s-73.166 -44.5 -128.499 -44.5s-98 14.833 -128 44.5s-45 70.5 -45 122.5v437h-88v-430c0 -33.333 5.5 -64.833 16.5 -94.5s27.333 -56 49 -79
s48.834 -41.167 81.501 -54.5s70.667 -20 114 -20s81.333 6.66699 114 20s60 31.5 82 54.5s38.5 49.333 49.5 79s16.5 61.167 16.5 94.5v430z" />
    <glyph glyph-name="Udieresis" unicode="&#xdc;" horiz-adv-x="675" 
d="M599 666h-88.002v-437c0 -52 -15.167 -92.833 -45.5 -122.5s-73.166 -44.5 -128.499 -44.5s-98 14.833 -128 44.5s-45 70.5 -45 122.5v437h-88v-430c0 -33.333 5.5 -64.833 16.5 -94.5s27.333 -56 49 -79s48.834 -41.167 81.501 -54.5s70.667 -20 114 -20
s81.333 6.66699 114 20s60 31.5 82 54.5s38.5 49.333 49.5 79s16.5 61.167 16.5 94.5v430zM382.998 794c0 -15.333 4.66699 -27.666 14 -36.999s22 -14 38 -14c16.667 0 29.667 4.66699 39 14s14 21.666 14 36.999s-4.66699 27.666 -14 36.999s-22.333 14 -39 14
c-16 0 -28.667 -4.66699 -38 -14s-14 -21.666 -14 -36.999zM187.998 794c0 -15.333 4.66699 -27.666 14 -36.999s22 -14 38 -14c16.667 0 29.667 4.66699 39 14s14 21.666 14 36.999s-4.66699 27.666 -14 36.999s-22.333 14 -39 14c-16 0 -28.667 -4.66699 -38 -14
s-14 -21.666 -14 -36.999z" />
    <glyph glyph-name="Yacute" unicode="&#xdd;" horiz-adv-x="550" 
d="M538 666h-92l-171 -319l-171 319h-93l220 -397v-269h88v269zM422 862h-113l-83 -132h82z" />
    <glyph glyph-name="Thorn" unicode="&#xde;" horiz-adv-x="587" 
d="M558 338c0 28 -4.66699 54.1689 -14 78.502s-23 45.5 -41 63.5s-40.167 32.333 -66.5 43s-56.5 16 -90.5 16h-180v127h-88v-666h88v137h180c34 0 64.167 5.33301 90.5 16s48.5 25.167 66.5 43.5s31.667 39.666 41 63.999s14 50.166 14 77.499zM469 338.002
c0 -40 -11.667 -71.667 -35 -95s-56 -35 -98 -35h-170v259h170c42 0 74.667 -11.5 98 -34.5s35 -54.5 35 -94.5z" />
    <glyph glyph-name="germandbls" unicode="&#xdf;" horiz-adv-x="563" 
d="M155 0l0.00488281 439.998c0 56 11.167 98.5 33.5 127.5s55.166 43.5 98.499 43.5c26.667 0 48.667 -6 66 -18s26 -30.667 26 -56c0 -19.333 -6.16699 -37.166 -18.5 -53.499l-33.5 -44.5l-19 -25c-6.66699 -8.66699 -12.834 -18 -18.501 -28
s-10.334 -20.833 -14.001 -32.5s-5.5 -24.5 -5.5 -38.5c0 -28.667 8.83301 -52.667 26.5 -72s43.167 -36.333 76.5 -51c24 -10.667 43.667 -20.834 59 -30.501s23 -24.5 23 -44.5c0 -20.667 -7.33301 -36.167 -22 -46.5s-34.667 -15.5 -60 -15.5
c-17.333 0 -36.166 1.66699 -56.499 5s-39.166 8.33301 -56.499 15l-13 -61c17.333 -7.33301 38.333 -13.166 63 -17.499s47.334 -6.5 68.001 -6.5c48 0 86.667 12.167 116 36.5s44 56.5 44 96.5c0 16.667 -3.33301 31.667 -10 45s-15.5 25.166 -26.5 35.499
s-23.167 19.5 -36.5 27.5s-27 15.333 -41 22c-22.667 11.333 -40.334 21.333 -53.001 30s-19 21.334 -19 38.001c0 9.33301 1.83301 18.166 5.5 26.499s8.16699 16.333 13.5 24s11.166 15.167 17.499 22.5s12.5 15 18.5 23l18.5 24.5
c6.33301 8.33301 12.166 17.5 17.499 27.5s9.83301 20.833 13.5 32.5s5.5 24.834 5.5 39.501c0 20.667 -4.16699 39.334 -12.5 56.001s-19.833 30.834 -34.5 42.501s-32.334 20.667 -53.001 27s-43 9.5 -67 9.5c-70.667 0 -125.834 -19.833 -165.501 -59.5
s-59.5 -97.834 -59.5 -174.501v-442h85z" />
    <glyph glyph-name="agrave" unicode="&#xe0;" horiz-adv-x="512" 
d="M446 0l0.00195312 328.998c0 54 -15.833 94 -47.5 120s-78.834 39 -141.501 39c-63.333 0 -122 -12.667 -176 -38l15 -68c23.333 10.667 47.333 18.834 72 24.501s50.667 8.5 78 8.5c38.667 0 67.334 -7.33301 86.001 -22s28 -38 28 -70v-44h-144
c-24.667 0 -47.334 -3 -68.001 -9s-38.334 -15 -53.001 -27s-26.167 -27.333 -34.5 -46s-12.5 -40.667 -12.5 -66c0 -43.333 13 -77.666 39 -102.999s62.667 -38 110 -38c38 0 71.167 7.83301 99.5 23.5s50.833 38.167 67.5 67.5v-81h82zM360.002 186.998
c0 -18.667 -3.5 -36.332 -10.5 -52.999s-16.667 -31.167 -29 -43.5s-26.833 -22 -43.5 -29s-35 -10.5 -55 -10.5c-29.333 0 -51.833 6.66699 -67.5 20s-23.5 33.666 -23.5 60.999c0 56.667 32.333 85 97 85h132v-30zM231.002 543h81l-62 152h-107z" />
    <glyph glyph-name="aacute" unicode="&#xe1;" horiz-adv-x="512" 
d="M446 0l0.00195312 328.998c0 54 -15.833 94 -47.5 120s-78.834 39 -141.501 39c-63.333 0 -122 -12.667 -176 -38l15 -68c23.333 10.667 47.333 18.834 72 24.501s50.667 8.5 78 8.5c38.667 0 67.334 -7.33301 86.001 -22s28 -38 28 -70v-44h-144
c-24.667 0 -47.334 -3 -68.001 -9s-38.334 -15 -53.001 -27s-26.167 -27.333 -34.5 -46s-12.5 -40.667 -12.5 -66c0 -43.333 13 -77.666 39 -102.999s62.667 -38 110 -38c38 0 71.167 7.83301 99.5 23.5s50.833 38.167 67.5 67.5v-81h82zM360.002 186.998
c0 -18.667 -3.5 -36.332 -10.5 -52.999s-16.667 -31.167 -29 -43.5s-26.833 -22 -43.5 -29s-35 -10.5 -55 -10.5c-29.333 0 -51.833 6.66699 -67.5 20s-23.5 33.666 -23.5 60.999c0 56.667 32.333 85 97 85h132v-30zM212.002 543h81l88 152h-108z" />
    <glyph glyph-name="acircumflex" unicode="&#xe2;" horiz-adv-x="512" 
d="M446 0l0.00195312 328.998c0 54 -15.833 94 -47.5 120s-78.834 39 -141.501 39c-63.333 0 -122 -12.667 -176 -38l15 -68c23.333 10.667 47.333 18.834 72 24.501s50.667 8.5 78 8.5c38.667 0 67.334 -7.33301 86.001 -22s28 -38 28 -70v-44h-144
c-24.667 0 -47.334 -3 -68.001 -9s-38.334 -15 -53.001 -27s-26.167 -27.333 -34.5 -46s-12.5 -40.667 -12.5 -66c0 -43.333 13 -77.666 39 -102.999s62.667 -38 110 -38c38 0 71.167 7.83301 99.5 23.5s50.833 38.167 67.5 67.5v-81h82zM360.002 186.998
c0 -18.667 -3.5 -36.332 -10.5 -52.999s-16.667 -31.167 -29 -43.5s-26.833 -22 -43.5 -29s-35 -10.5 -55 -10.5c-29.333 0 -51.833 6.66699 -67.5 20s-23.5 33.666 -23.5 60.999c0 56.667 32.333 85 97 85h132v-30zM308.002 695h-86l-103 -152h80l66 102l66 -102h80z" />
    <glyph glyph-name="atilde" unicode="&#xe3;" horiz-adv-x="512" 
d="M446 0l0.00195312 328.998c0 54 -15.833 94 -47.5 120s-78.834 39 -141.501 39c-63.333 0 -122 -12.667 -176 -38l15 -68c23.333 10.667 47.333 18.834 72 24.501s50.667 8.5 78 8.5c38.667 0 67.334 -7.33301 86.001 -22s28 -38 28 -70v-44h-144
c-24.667 0 -47.334 -3 -68.001 -9s-38.334 -15 -53.001 -27s-26.167 -27.333 -34.5 -46s-12.5 -40.667 -12.5 -66c0 -43.333 13 -77.666 39 -102.999s62.667 -38 110 -38c38 0 71.167 7.83301 99.5 23.5s50.833 38.167 67.5 67.5v-81h82zM360.002 186.998
c0 -18.667 -3.5 -36.332 -10.5 -52.999s-16.667 -31.167 -29 -43.5s-26.833 -22 -43.5 -29s-35 -10.5 -55 -10.5c-29.333 0 -51.833 6.66699 -67.5 20s-23.5 33.666 -23.5 60.999c0 56.667 32.333 85 97 85h132v-30zM370.002 670c-2 -5.33301 -4.16699 -10.668 -6.5 -16.001
s-5 -10.166 -8 -14.499s-6.5 -8 -10.5 -11s-9.33301 -4.5 -16 -4.5c-8 0 -17 2.33301 -27 7s-20.5 9.83398 -31.5 15.501s-22.667 10.834 -35 15.501s-24.5 7 -36.5 7c-27.333 0 -48 -7.83301 -62 -23.5s-26 -38.167 -36 -67.5l56 -21c4.66699 11.333 10 22 16 32
s15 15 27 15c10 0 20.333 -2.33301 31 -7s21.667 -9.83398 33 -15.501s22.833 -10.834 34.5 -15.501s23.5 -7 35.5 -7c26.667 0 47 8.83301 61 26.5s24.667 39.167 32 64.5z" />
    <glyph glyph-name="adieresis" unicode="&#xe4;" horiz-adv-x="512" 
d="M446 0l0.00195312 328.998c0 54 -15.833 94 -47.5 120s-78.834 39 -141.501 39c-63.333 0 -122 -12.667 -176 -38l15 -68c23.333 10.667 47.333 18.834 72 24.501s50.667 8.5 78 8.5c38.667 0 67.334 -7.33301 86.001 -22s28 -38 28 -70v-44h-144
c-24.667 0 -47.334 -3 -68.001 -9s-38.334 -15 -53.001 -27s-26.167 -27.333 -34.5 -46s-12.5 -40.667 -12.5 -66c0 -43.333 13 -77.666 39 -102.999s62.667 -38 110 -38c38 0 71.167 7.83301 99.5 23.5s50.833 38.167 67.5 67.5v-81h82zM360.002 186.998
c0 -18.667 -3.5 -36.332 -10.5 -52.999s-16.667 -31.167 -29 -43.5s-26.833 -22 -43.5 -29s-35 -10.5 -55 -10.5c-29.333 0 -51.833 6.66699 -67.5 20s-23.5 33.666 -23.5 60.999c0 56.667 32.333 85 97 85h132v-30zM304.002 612c0 -14.667 4.83301 -27 14.5 -37
s22.5 -15 38.5 -15s28.667 5 38 15s14 22.333 14 37s-4.66699 26.834 -14 36.501s-22 14.5 -38 14.5s-28.833 -4.83301 -38.5 -14.5s-14.5 -21.834 -14.5 -36.501zM121.002 612c0 -14.667 4.83301 -27 14.5 -37s22.167 -15 37.5 -15c16.667 0 29.667 5 39 15
s14 22.333 14 37s-4.66699 26.834 -14 36.501s-22.333 14.5 -39 14.5c-15.333 0 -27.833 -4.83301 -37.5 -14.5s-14.5 -21.834 -14.5 -36.501z" />
    <glyph glyph-name="aring" unicode="&#xe5;" horiz-adv-x="512" 
d="M446 0l0.00195312 328.998c0 54 -15.833 94 -47.5 120s-78.834 39 -141.501 39c-63.333 0 -122 -12.667 -176 -38l15 -68c23.333 10.667 47.333 18.834 72 24.501s50.667 8.5 78 8.5c38.667 0 67.334 -7.33301 86.001 -22s28 -38 28 -70v-44h-144
c-24.667 0 -47.334 -3 -68.001 -9s-38.334 -15 -53.001 -27s-26.167 -27.333 -34.5 -46s-12.5 -40.667 -12.5 -66c0 -43.333 13 -77.666 39 -102.999s62.667 -38 110 -38c38 0 71.167 7.83301 99.5 23.5s50.833 38.167 67.5 67.5v-81h82zM360.002 186.998
c0 -18.667 -3.5 -36.332 -10.5 -52.999s-16.667 -31.167 -29 -43.5s-26.833 -22 -43.5 -29s-35 -10.5 -55 -10.5c-29.333 0 -51.833 6.66699 -67.5 20s-23.5 33.666 -23.5 60.999c0 56.667 32.333 85 97 85h132v-30zM360.002 626c0 23.333 -7.66699 43 -23 59
s-38.666 24 -69.999 24s-54.5 -8 -69.5 -24s-22.5 -35.667 -22.5 -59c0 -22.667 7.5 -42.167 22.5 -58.5s38.167 -24.5 69.5 -24.5s54.666 8.16699 69.999 24.5s23 35.833 23 58.5zM218.002 626c0 15.333 4.33301 27 13 35s20.667 12 36 12c32.667 0 49 -15.667 49 -47
s-16.333 -47 -49 -47c-15.333 0 -27.333 4 -36 12s-13 19.667 -13 35z" />
    <glyph glyph-name="ae" unicode="&#xe6;" horiz-adv-x="812" 
d="M776 212v52c0 32 -3.5 61.667 -10.5 89s-18 51 -33 71s-34.5 35.667 -58.5 47s-53 17 -87 17c-40.667 0 -75 -7.5 -103 -22.5s-50.667 -35.167 -68 -60.5c-13.333 27.333 -34.333 48 -63 62s-63 21 -103 21c-34.667 0 -65.667 -3.66699 -93 -11s-51 -16.333 -71 -27
l15 -65c21.333 9.33301 43.5 16.666 66.5 21.999s48.5 8 76.5 8c40 0 70.5 -8.66699 91.5 -26s31.5 -45 31.5 -83v-32h-148c-57.333 0 -100.166 -11.833 -128.499 -35.5s-42.5 -58.5 -42.5 -104.5c0 -47.333 15.167 -83.166 45.5 -107.499s71.5 -36.5 123.5 -36.5
c46 0 84.5 8.83301 115.5 26.5s57.167 42.167 78.5 73.5c15.333 -29.333 39 -53.333 71 -72s71.333 -28 118 -28c33.333 0 64.5 3.33301 93.5 10s54.833 15.667 77.5 27l-15 59c-21.333 -9.33301 -44 -16.833 -68 -22.5s-49.333 -8.5 -76 -8.5
c-28.667 0 -52.834 3.5 -72.501 10.5s-35.667 17.333 -48 31s-21.5 30.167 -27.5 49.5s-9.66699 41.333 -11 66h323zM367 181c0 -38 -12.833 -69.333 -38.5 -94s-59.5 -37 -101.5 -37c-34 0 -59 7.33301 -75 22s-24 34.667 -24 60c0 53.333 32.667 80 98 80h141v-31z
M586 427c39.333 0 67.167 -13.332 83.5 -39.999s24.5 -60.334 24.5 -101.001v-12h-240c7.33301 102 51.333 153 132 153z" />
    <glyph glyph-name="ccedilla" unicode="&#xe7;" horiz-adv-x="439" 
d="M357 -108c0 11.333 -2.49902 20.8301 -7.49902 28.4971s-11.833 13.834 -20.5 18.501s-18.667 8 -30 10s-23.333 3.33301 -36 4l8 37c25.333 0.666992 50.333 3.33398 75 8.00098s45 11.667 61 21l-14 65c-15.333 -7.33301 -32.666 -13.166 -51.999 -17.499
s-39.666 -6.5 -60.999 -6.5c-28.667 0 -52.834 4.33301 -72.501 13s-35.667 20.834 -48 36.501s-21.166 34.5 -26.499 56.5s-8 46.333 -8 73s2.66699 51 8 73s14.166 40.833 26.499 56.5s28.333 27.834 48 36.501s43.834 13 72.501 13c21.333 0 41.666 -2.16699 60.999 -6.5
s36.666 -10.166 51.999 -17.499l14 64c-16.667 9.33301 -37.5 16.666 -62.5 21.999s-50.833 8 -77.5 8c-74.667 0 -131.334 -22 -170.001 -66s-58 -105 -58 -183c0 -70.667 15.833 -127.5 47.5 -170.5s78.5 -68.167 140.5 -75.5l-18 -75l26.5 -2c9 -0.666992 17 -2 24 -4
s12.667 -4.83301 17 -8.5s6.5 -8.83398 6.5 -15.501s-2.33301 -12 -7 -16s-10.834 -7.16699 -18.501 -9.5s-16.167 -4 -25.5 -5s-19 -1.83301 -29 -2.5l3 -43c20.667 0.666992 40.334 2.66699 59.001 6s34.667 8.16602 48 14.499s24 14.333 32 24s12 21.5 12 35.5z" />
    <glyph glyph-name="egrave" unicode="&#xe8;" horiz-adv-x="487" 
d="M451 209v52.998c0 32.667 -3.5 62.834 -10.5 90.501s-18.167 51.5 -33.5 71.5s-35 35.667 -59 47s-53.333 17 -88 17c-36.667 0 -68.834 -6.16699 -96.501 -18.5s-50.667 -29.5 -69 -51.5s-32 -48.167 -41 -78.5s-13.5 -63.833 -13.5 -100.5s4.66699 -70.167 14 -100.5
s23.5 -56.5 42.5 -78.5s43.167 -39.167 72.5 -51.5s64 -18.5 104 -18.5c34 0 65.667 3.33301 95 10s55 15.667 77 27l-14 60c-21.333 -9.33301 -44.166 -17.166 -68.499 -23.499s-50.166 -9.5 -77.499 -9.5c-55.333 0 -94.833 13.667 -118.5 41s-36.834 65.333 -39.501 114
h324zM259 426.998c20 0 37.001 -3.49805 51.001 -10.498s25.333 -16.833 34 -29.5s15 -27.834 19 -45.501s6 -36.834 6 -57.501v-12h-242c3.33301 52 15.666 90.833 36.999 116.5s53 38.5 95 38.5zM227.001 543h81l-62 152h-107z" />
    <glyph glyph-name="eacute" unicode="&#xe9;" horiz-adv-x="487" 
d="M212 543h81l88 152h-108zM451 209v52.998c0 32.667 -3.5 62.834 -10.5 90.501s-18.167 51.5 -33.5 71.5s-35 35.667 -59 47s-53.333 17 -88 17c-36.667 0 -68.834 -6.16699 -96.501 -18.5s-50.667 -29.5 -69 -51.5s-32 -48.167 -41 -78.5s-13.5 -63.833 -13.5 -100.5
s4.66699 -70.167 14 -100.5s23.5 -56.5 42.5 -78.5s43.167 -39.167 72.5 -51.5s64 -18.5 104 -18.5c34 0 65.667 3.33301 95 10s55 15.667 77 27l-14 60c-21.333 -9.33301 -44.166 -17.166 -68.499 -23.499s-50.166 -9.5 -77.499 -9.5c-55.333 0 -94.833 13.667 -118.5 41
s-36.834 65.333 -39.501 114h324zM259 426.998c20 0 37.001 -3.49805 51.001 -10.498s25.333 -16.833 34 -29.5s15 -27.834 19 -45.501s6 -36.834 6 -57.501v-12h-242c3.33301 52 15.666 90.833 36.999 116.5s53 38.5 95 38.5z" />
    <glyph glyph-name="ecircumflex" unicode="&#xea;" horiz-adv-x="487" 
d="M304 695h-86l-103 -152h80l66 102l66 -102h80zM451 209v52.998c0 32.667 -3.5 62.834 -10.5 90.501s-18.167 51.5 -33.5 71.5s-35 35.667 -59 47s-53.333 17 -88 17c-36.667 0 -68.834 -6.16699 -96.501 -18.5s-50.667 -29.5 -69 -51.5s-32 -48.167 -41 -78.5
s-13.5 -63.833 -13.5 -100.5s4.66699 -70.167 14 -100.5s23.5 -56.5 42.5 -78.5s43.167 -39.167 72.5 -51.5s64 -18.5 104 -18.5c34 0 65.667 3.33301 95 10s55 15.667 77 27l-14 60c-21.333 -9.33301 -44.166 -17.166 -68.499 -23.499s-50.166 -9.5 -77.499 -9.5
c-55.333 0 -94.833 13.667 -118.5 41s-36.834 65.333 -39.501 114h324zM259 426.998c20 0 37.001 -3.49805 51.001 -10.498s25.333 -16.833 34 -29.5s15 -27.834 19 -45.501s6 -36.834 6 -57.501v-12h-242c3.33301 52 15.666 90.833 36.999 116.5s53 38.5 95 38.5z" />
    <glyph glyph-name="edieresis" unicode="&#xeb;" horiz-adv-x="487" 
d="M301 612c0 -14.667 4.83301 -27 14.5 -37s22.5 -15 38.5 -15s28.667 5 38 15s14 22.333 14 37s-4.66699 26.834 -14 36.501s-22 14.5 -38 14.5s-28.833 -4.83301 -38.5 -14.5s-14.5 -21.834 -14.5 -36.501zM118 612c0 -14.667 4.83301 -27 14.5 -37s22.167 -15 37.5 -15
c16.667 0 29.667 5 39 15s14 22.333 14 37s-4.66699 26.834 -14 36.501s-22.333 14.5 -39 14.5c-15.333 0 -27.833 -4.83301 -37.5 -14.5s-14.5 -21.834 -14.5 -36.501zM451 209v52.998c0 32.667 -3.5 62.834 -10.5 90.501s-18.167 51.5 -33.5 71.5s-35 35.667 -59 47
s-53.333 17 -88 17c-36.667 0 -68.834 -6.16699 -96.501 -18.5s-50.667 -29.5 -69 -51.5s-32 -48.167 -41 -78.5s-13.5 -63.833 -13.5 -100.5s4.66699 -70.167 14 -100.5s23.5 -56.5 42.5 -78.5s43.167 -39.167 72.5 -51.5s64 -18.5 104 -18.5c34 0 65.667 3.33301 95 10
s55 15.667 77 27l-14 60c-21.333 -9.33301 -44.166 -17.166 -68.499 -23.499s-50.166 -9.5 -77.499 -9.5c-55.333 0 -94.833 13.667 -118.5 41s-36.834 65.333 -39.501 114h324zM259 426.998c20 0 37.001 -3.49805 51.001 -10.498s25.333 -16.833 34 -29.5
s15 -27.834 19 -45.501s6 -36.834 6 -57.501v-12h-242c3.33301 52 15.666 90.833 36.999 116.5s53 38.5 95 38.5z" />
    <glyph glyph-name="igrave" unicode="&#xec;" horiz-adv-x="232" 
d="M159 0v478h-86v-478h86zM79 543h81l-62 152h-107z" />
    <glyph glyph-name="iacute" unicode="&#xed;" horiz-adv-x="232" 
d="M78 543h81l88 152h-108zM159 0v478h-86v-478h86z" />
    <glyph glyph-name="icircumflex" unicode="&#xee;" horiz-adv-x="232" 
d="M161 695h-86l-103 -152h80l66 102l66 -102h80zM159 0v478h-86v-478h86z" />
    <glyph glyph-name="idieresis" unicode="&#xef;" horiz-adv-x="232" 
d="M156 612c0 -14.667 4.83301 -27 14.5 -37s22.5 -15 38.5 -15s28.667 5 38 15s14 22.333 14 37s-4.66699 26.834 -14 36.501s-22 14.5 -38 14.5s-28.833 -4.83301 -38.5 -14.5s-14.5 -21.834 -14.5 -36.501zM-27 612c0 -14.667 4.83301 -27 14.5 -37s22.167 -15 37.5 -15
c16.667 0 29.667 5 39 15s14 22.333 14 37s-4.66699 26.834 -14 36.501s-22.333 14.5 -39 14.5c-15.333 0 -27.833 -4.83301 -37.5 -14.5s-14.5 -21.834 -14.5 -36.501zM159 0v478h-86v-478h86z" />
    <glyph glyph-name="eth" unicode="&#xf0;" horiz-adv-x="509" 
d="M209 471l77.001 57.999c58 -46 94 -106 108 -180c-15.333 29.333 -36.5 52 -63.5 68s-58.5 24 -94.5 24c-33.333 0 -62.333 -5.83301 -87 -17.5s-45.334 -27.834 -62.001 -48.501s-29 -44.667 -37 -72s-12 -56.666 -12 -87.999c0 -29.333 4.5 -57.5 13.5 -84.5
s22.167 -51 39.5 -72s38.833 -37.667 64.5 -50s55.167 -18.5 88.5 -18.5c38 0 71.333 7.33301 100 22s52.334 34.334 71.001 59.001s32.667 52.5 42 83.5s14 63.167 14 96.5c0 73.333 -10.833 136.166 -32.5 188.499s-53.167 96.5 -94.5 132.5l66 49l-34 45l-79 -59
c-22.667 15.333 -47.334 28.5 -74.001 39.5s-55 20.833 -85 29.5l-19 -65c45.333 -13.333 84.333 -29.666 117 -48.999l-62 -46zM122.001 214.999c0 46 10.6689 84.0029 32.002 114.003s54.333 45 99 45c20.667 0 39.167 -4 55.5 -12s30.166 -19 41.499 -33
s20.166 -30.5 26.499 -49.5s9.5 -39.5 9.5 -61.5c0 -21.333 -3 -41.833 -9 -61.5s-14.833 -36.834 -26.5 -51.501s-26 -26.334 -43 -35.001s-36.167 -13 -57.5 -13s-40 4 -56 12s-29.333 19.167 -40 33.5s-18.667 31.166 -24 50.499s-8 40 -8 62z" />
    <glyph glyph-name="ntilde" unicode="&#xf1;" horiz-adv-x="540" 
d="M472 0l-0.000976562 325c0 51.333 -12.167 91.333 -36.5 120s-63.5 43 -117.5 43c-41.333 0 -75.333 -10.167 -102 -30.5s-46.667 -46.166 -60 -77.499v98h-83v-478h86v256c0 50 12.333 88.833 37 116.5s56 41.5 94 41.5c32.667 0 56.834 -8.83301 72.501 -26.5
s23.5 -42.834 23.5 -75.501v-312h86zM385.999 670c-2 -5.33301 -4.16699 -10.668 -6.5 -16.001s-5 -10.166 -8 -14.499s-6.5 -8 -10.5 -11s-9.33301 -4.5 -16 -4.5c-8 0 -17 2.33301 -27 7s-20.5 9.83398 -31.5 15.501s-22.667 10.834 -35 15.501s-24.5 7 -36.5 7
c-27.333 0 -48 -7.83301 -62 -23.5s-26 -38.167 -36 -67.5l56 -21c4.66699 11.333 10 22 16 32s15 15 27 15c10 0 20.333 -2.33301 31 -7s21.667 -9.83398 33 -15.501s22.833 -10.834 34.5 -15.501s23.5 -7 35.5 -7c26.667 0 47 8.83301 61 26.5s24.667 39.167 32 64.5z" />
    <glyph glyph-name="ograve" unicode="&#xf2;" horiz-adv-x="515" 
d="M475 239c0 35.333 -4.5 68.166 -13.5 98.499s-22.5 56.666 -40.5 78.999s-40.667 39.833 -68 52.5s-59 19 -95 19s-67.667 -6.33301 -95 -19s-50.166 -30.167 -68.499 -52.5s-32 -48.666 -41 -78.999s-13.5 -63.166 -13.5 -98.499s4.5 -68.166 13.5 -98.499
s22.667 -56.666 41 -78.999s41.166 -39.833 68.499 -52.5s59 -19 95 -19s67.667 6.33301 95 19s50 30.167 68 52.5s31.5 48.666 40.5 78.999s13.5 63.166 13.5 98.499zM389 239c0 -56 -10.5 -100.333 -31.5 -133s-54.167 -49 -99.5 -49s-78.666 16.5 -99.999 49.5
s-32 77.167 -32 132.5s10.667 99.5 32 132.5s54.666 49.5 99.999 49.5s78.5 -16.333 99.5 -49s31.5 -77 31.5 -133zM219 543h81l-62 152h-107z" />
    <glyph glyph-name="oacute" unicode="&#xf3;" horiz-adv-x="515" 
d="M214 543h81l88 152h-108zM475 239c0 35.333 -4.5 68.166 -13.5 98.499s-22.5 56.666 -40.5 78.999s-40.667 39.833 -68 52.5s-59 19 -95 19s-67.667 -6.33301 -95 -19s-50.166 -30.167 -68.499 -52.5s-32 -48.666 -41 -78.999s-13.5 -63.166 -13.5 -98.499
s4.5 -68.166 13.5 -98.499s22.667 -56.666 41 -78.999s41.166 -39.833 68.499 -52.5s59 -19 95 -19s67.667 6.33301 95 19s50 30.167 68 52.5s31.5 48.666 40.5 78.999s13.5 63.166 13.5 98.499zM389 239c0 -56 -10.5 -100.333 -31.5 -133s-54.167 -49 -99.5 -49
s-78.666 16.5 -99.999 49.5s-32 77.167 -32 132.5s10.667 99.5 32 132.5s54.666 49.5 99.999 49.5s78.5 -16.333 99.5 -49s31.5 -77 31.5 -133z" />
    <glyph glyph-name="ocircumflex" unicode="&#xf4;" horiz-adv-x="515" 
d="M301 695h-86l-103 -152h80l66 102l66 -102h80zM475 239c0 35.333 -4.5 68.166 -13.5 98.499s-22.5 56.666 -40.5 78.999s-40.667 39.833 -68 52.5s-59 19 -95 19s-67.667 -6.33301 -95 -19s-50.166 -30.167 -68.499 -52.5s-32 -48.666 -41 -78.999
s-13.5 -63.166 -13.5 -98.499s4.5 -68.166 13.5 -98.499s22.667 -56.666 41 -78.999s41.166 -39.833 68.499 -52.5s59 -19 95 -19s67.667 6.33301 95 19s50 30.167 68 52.5s31.5 48.666 40.5 78.999s13.5 63.166 13.5 98.499zM389 239c0 -56 -10.5 -100.333 -31.5 -133
s-54.167 -49 -99.5 -49s-78.666 16.5 -99.999 49.5s-32 77.167 -32 132.5s10.667 99.5 32 132.5s54.666 49.5 99.999 49.5s78.5 -16.333 99.5 -49s31.5 -77 31.5 -133z" />
    <glyph glyph-name="otilde" unicode="&#xf5;" horiz-adv-x="515" 
d="M475 239c0 35.333 -4.5 68.166 -13.5 98.499s-22.5 56.666 -40.5 78.999s-40.667 39.833 -68 52.5s-59 19 -95 19s-67.667 -6.33301 -95 -19s-50.166 -30.167 -68.499 -52.5s-32 -48.666 -41 -78.999s-13.5 -63.166 -13.5 -98.499s4.5 -68.166 13.5 -98.499
s22.667 -56.666 41 -78.999s41.166 -39.833 68.499 -52.5s59 -19 95 -19s67.667 6.33301 95 19s50 30.167 68 52.5s31.5 48.666 40.5 78.999s13.5 63.166 13.5 98.499zM389 239c0 -56 -10.5 -100.333 -31.5 -133s-54.167 -49 -99.5 -49s-78.666 16.5 -99.999 49.5
s-32 77.167 -32 132.5s10.667 99.5 32 132.5s54.666 49.5 99.999 49.5s78.5 -16.333 99.5 -49s31.5 -77 31.5 -133zM367 670c-2 -5.33301 -4.16699 -10.668 -6.5 -16.001s-5 -10.166 -8 -14.499s-6.5 -8 -10.5 -11s-9.33301 -4.5 -16 -4.5c-8 0 -17 2.33301 -27 7
s-20.5 9.83398 -31.5 15.501s-22.667 10.834 -35 15.501s-24.5 7 -36.5 7c-27.333 0 -48 -7.83301 -62 -23.5s-26 -38.167 -36 -67.5l56 -21c4.66699 11.333 10 22 16 32s15 15 27 15c10 0 20.333 -2.33301 31 -7s21.667 -9.83398 33 -15.501s22.833 -10.834 34.5 -15.501
s23.5 -7 35.5 -7c26.667 0 47 8.83301 61 26.5s24.667 39.167 32 64.5z" />
    <glyph glyph-name="odieresis" unicode="&#xf6;" horiz-adv-x="515" 
d="M297 612c0 -14.667 4.83301 -27 14.5 -37s22.5 -15 38.5 -15s28.667 5 38 15s14 22.333 14 37s-4.66699 26.834 -14 36.501s-22 14.5 -38 14.5s-28.833 -4.83301 -38.5 -14.5s-14.5 -21.834 -14.5 -36.501zM114 612c0 -14.667 4.83301 -27 14.5 -37s22.167 -15 37.5 -15
c16.667 0 29.667 5 39 15s14 22.333 14 37s-4.66699 26.834 -14 36.501s-22.333 14.5 -39 14.5c-15.333 0 -27.833 -4.83301 -37.5 -14.5s-14.5 -21.834 -14.5 -36.501zM475 239c0 35.333 -4.5 68.166 -13.5 98.499s-22.5 56.666 -40.5 78.999s-40.667 39.833 -68 52.5
s-59 19 -95 19s-67.667 -6.33301 -95 -19s-50.166 -30.167 -68.499 -52.5s-32 -48.666 -41 -78.999s-13.5 -63.166 -13.5 -98.499s4.5 -68.166 13.5 -98.499s22.667 -56.666 41 -78.999s41.166 -39.833 68.499 -52.5s59 -19 95 -19s67.667 6.33301 95 19s50 30.167 68 52.5
s31.5 48.666 40.5 78.999s13.5 63.166 13.5 98.499zM389 239c0 -56 -10.5 -100.333 -31.5 -133s-54.167 -49 -99.5 -49s-78.666 16.5 -99.999 49.5s-32 77.167 -32 132.5s10.667 99.5 32 132.5s54.666 49.5 99.999 49.5s78.5 -16.333 99.5 -49s31.5 -77 31.5 -133z" />
    <glyph glyph-name="divide" unicode="&#xf7;" horiz-adv-x="539" 
d="M326 506c0 16 -5.5 29.167 -16.5 39.5s-24.5 15.5 -40.5 15.5s-29.333 -5.16699 -40 -15.5s-16 -23.5 -16 -39.5s5.33301 -29.167 16 -39.5s24 -15.5 40 -15.5s29.5 5.16699 40.5 15.5s16.5 23.5 16.5 39.5zM486 287v72h-433v-72h433zM326 140
c0 16 -5.5 29.167 -16.5 39.5s-24.5 15.5 -40.5 15.5s-29.333 -5.16699 -40 -15.5s-16 -23.5 -16 -39.5s5.33301 -29.167 16 -39.5s24 -15.5 40 -15.5s29.5 5.16699 40.5 15.5s16.5 23.5 16.5 39.5z" />
    <glyph glyph-name="oslash" unicode="&#xf8;" horiz-adv-x="515" 
d="M475 239c0 48 -8.16992 91 -24.5029 129s-41.166 67.667 -74.499 89l45 105h-49l-37 -86c-11.333 3.33301 -23.5 6.16602 -36.5 8.49902s-26.5 3.5 -40.5 3.5c-36 0 -67.667 -6.33301 -95 -19s-50.166 -30.167 -68.499 -52.5s-32 -48.666 -41 -78.999
s-13.5 -63.166 -13.5 -98.499c0 -48 8.16699 -91.167 24.5 -129.5s41.5 -67.833 75.5 -88.5l-45 -105h49l37 86c11.333 -3.33301 23.333 -6.16602 36 -8.49902s26.334 -3.5 41.001 -3.5c36 0 67.667 6.33301 95 19s50 30.167 68 52.5s31.5 48.666 40.5 78.999
s13.5 63.166 13.5 98.499zM125.997 239c0 55.333 10.668 99.501 32.001 132.501s54.666 49.5 99.999 49.5c18.667 0 35 -3 49 -9l-137 -321c-15.333 15.333 -26.5 35.666 -33.5 60.999s-10.5 54.333 -10.5 87zM388.998 239.001c0 -56 -10.499 -100.333 -31.499 -133
s-54.167 -49 -99.5 -49c-18.667 0 -35.334 3 -50.001 9l137 320c15.333 -15.333 26.5 -35.5 33.5 -60.5s10.5 -53.833 10.5 -86.5z" />
    <glyph glyph-name="ugrave" unicode="&#xf9;" horiz-adv-x="535" 
d="M68 478v-326.001c0 -50 12 -89.5 36 -118.5s62 -43.5 114 -43.5c40.667 0 74.167 10.167 100.5 30.5s46.166 45.833 59.499 76.5v-97h84v478h-86v-256c0 -50 -12.167 -88.833 -36.5 -116.5s-55.166 -41.5 -92.499 -41.5c-32 0 -55.5 8.83301 -70.5 26.5
s-22.5 42.834 -22.5 75.501v312h-86zM247 542.999h81l-62 152h-107z" />
    <glyph glyph-name="uacute" unicode="&#xfa;" horiz-adv-x="535" 
d="M213 543h81l88 152h-108zM68 478v-326.001c0 -50 12 -89.5 36 -118.5s62 -43.5 114 -43.5c40.667 0 74.167 10.167 100.5 30.5s46.166 45.833 59.499 76.5v-97h84v478h-86v-256c0 -50 -12.167 -88.833 -36.5 -116.5s-55.166 -41.5 -92.499 -41.5
c-32 0 -55.5 8.83301 -70.5 26.5s-22.5 42.834 -22.5 75.501v312h-86z" />
    <glyph glyph-name="ucircumflex" unicode="&#xfb;" horiz-adv-x="535" 
d="M310 695h-86l-103 -152h80l66 102l66 -102h80zM68 478v-326.001c0 -50 12 -89.5 36 -118.5s62 -43.5 114 -43.5c40.667 0 74.167 10.167 100.5 30.5s46.166 45.833 59.499 76.5v-97h84v478h-86v-256c0 -50 -12.167 -88.833 -36.5 -116.5s-55.166 -41.5 -92.499 -41.5
c-32 0 -55.5 8.83301 -70.5 26.5s-22.5 42.834 -22.5 75.501v312h-86z" />
    <glyph glyph-name="udieresis" unicode="&#xfc;" horiz-adv-x="535" 
d="M308 612c0 -14.667 4.83301 -27 14.5 -37s22.5 -15 38.5 -15s28.667 5 38 15s14 22.333 14 37s-4.66699 26.834 -14 36.501s-22 14.5 -38 14.5s-28.833 -4.83301 -38.5 -14.5s-14.5 -21.834 -14.5 -36.501zM125 612c0 -14.667 4.83301 -27 14.5 -37s22.167 -15 37.5 -15
c16.667 0 29.667 5 39 15s14 22.333 14 37s-4.66699 26.834 -14 36.501s-22.333 14.5 -39 14.5c-15.333 0 -27.833 -4.83301 -37.5 -14.5s-14.5 -21.834 -14.5 -36.501zM68 478v-326.001c0 -50 12 -89.5 36 -118.5s62 -43.5 114 -43.5c40.667 0 74.167 10.167 100.5 30.5
s46.166 45.833 59.499 76.5v-97h84v478h-86v-256c0 -50 -12.167 -88.833 -36.5 -116.5s-55.166 -41.5 -92.499 -41.5c-32 0 -55.5 8.83301 -70.5 26.5s-22.5 42.834 -22.5 75.501v312h-86z" />
    <glyph glyph-name="yacute" unicode="&#xfd;" horiz-adv-x="429" 
d="M216 90l-123 388h-89l170 -480l-59 -176h86l224 656h-89zM170 543h81l88 152h-108z" />
    <glyph glyph-name="thorn" unicode="&#xfe;" horiz-adv-x="546" 
d="M507 239c0 34.667 -3.66797 67.1689 -11.001 97.502s-18.666 56.666 -33.999 78.999s-35 40 -59 53s-52.333 19.5 -85 19.5c-38 0 -70.167 -9.16699 -96.5 -27.5s-47.166 -42.833 -62.499 -73.5v279h-86v-844h86v269c13.333 -30 33.5 -54.333 60.5 -73s59.5 -28 97.5 -28
c33.333 0 62 6.5 86 19.5s43.667 30.667 59 53s26.666 48.666 33.999 78.999s11 62.833 11 97.5zM420.999 239.002c0 -26 -2.33301 -50.002 -7 -72.002s-12 -41 -22 -57s-23 -28.5 -39 -37.5s-35.333 -13.5 -58 -13.5c-23.333 0 -43.5 4.83301 -60.5 14.5s-31 22.667 -42 39
s-19.333 35.333 -25 57s-8.5 44.834 -8.5 69.501s2.83301 47.834 8.5 69.501s14 40.667 25 57s25 29.333 42 39s37.167 14.5 60.5 14.5c22.667 0 42 -4.5 58 -13.5s29 -21.5 39 -37.5s17.333 -35 22 -57s7 -46 7 -72z" />
    <glyph glyph-name="ydieresis" unicode="&#xff;" horiz-adv-x="429" 
d="M216 90l-123 388h-89l170 -480l-59 -176h86l224 656h-89zM257 612c0 -14.667 4.83301 -27 14.5 -37s22.5 -15 38.5 -15s28.667 5 38 15s14 22.333 14 37s-4.66699 26.834 -14 36.501s-22 14.5 -38 14.5s-28.833 -4.83301 -38.5 -14.5s-14.5 -21.834 -14.5 -36.501z
M74 612c0 -14.667 4.83301 -27 14.5 -37s22.167 -15 37.5 -15c16.667 0 29.667 5 39 15s14 22.333 14 37s-4.66699 26.834 -14 36.501s-22.333 14.5 -39 14.5c-15.333 0 -27.833 -4.83301 -37.5 -14.5s-14.5 -21.834 -14.5 -36.501z" />
    <glyph glyph-name="Amacron" unicode="&#x100;" horiz-adv-x="625" 
d="M17 0h89l61 175h291l62 -175h89l-248 666h-97zM313 596l120 -347h-240zM469 756v68h-313v-68h313z" />
    <glyph glyph-name="amacron" unicode="&#x101;" horiz-adv-x="512" 
d="M446 0l0.00195312 328.998c0 54 -15.833 94 -47.5 120s-78.834 39 -141.501 39c-63.333 0 -122 -12.667 -176 -38l15 -68c23.333 10.667 47.333 18.834 72 24.501s50.667 8.5 78 8.5c38.667 0 67.334 -7.33301 86.001 -22s28 -38 28 -70v-44h-144
c-24.667 0 -47.334 -3 -68.001 -9s-38.334 -15 -53.001 -27s-26.167 -27.333 -34.5 -46s-12.5 -40.667 -12.5 -66c0 -43.333 13 -77.666 39 -102.999s62.667 -38 110 -38c38 0 71.167 7.83301 99.5 23.5s50.833 38.167 67.5 67.5v-81h82zM360.002 186.998
c0 -18.667 -3.5 -36.332 -10.5 -52.999s-16.667 -31.167 -29 -43.5s-26.833 -22 -43.5 -29s-35 -10.5 -55 -10.5c-29.333 0 -51.833 6.66699 -67.5 20s-23.5 33.666 -23.5 60.999c0 56.667 32.333 85 97 85h132v-30zM399.002 570v67h-265v-67h265z" />
    <glyph glyph-name="Abreve" unicode="&#x102;" horiz-adv-x="625" 
d="M17 0h89l61 175h291l62 -175h89l-248 666h-97zM313 596l120 -347h-240zM387 849c0 -19.333 -6.16797 -34.667 -18.501 -46s-31.166 -17 -56.499 -17c-24.667 0 -43.334 5.5 -56.001 16.5s-19 26.5 -19 46.5h-68c0 -38 13.167 -67 39.5 -87s60.833 -30 103.5 -30
s77.334 10 104.001 30s40 49 40 87h-69z" />
    <glyph glyph-name="abreve" unicode="&#x103;" horiz-adv-x="512" 
d="M446 0l0.00195312 328.998c0 54 -15.833 94 -47.5 120s-78.834 39 -141.501 39c-63.333 0 -122 -12.667 -176 -38l15 -68c23.333 10.667 47.333 18.834 72 24.501s50.667 8.5 78 8.5c38.667 0 67.334 -7.33301 86.001 -22s28 -38 28 -70v-44h-144
c-24.667 0 -47.334 -3 -68.001 -9s-38.334 -15 -53.001 -27s-26.167 -27.333 -34.5 -46s-12.5 -40.667 -12.5 -66c0 -43.333 13 -77.666 39 -102.999s62.667 -38 110 -38c38 0 71.167 7.83301 99.5 23.5s50.833 38.167 67.5 67.5v-81h82zM360.002 186.998
c0 -18.667 -3.5 -36.332 -10.5 -52.999s-16.667 -31.167 -29 -43.5s-26.833 -22 -43.5 -29s-35 -10.5 -55 -10.5c-29.333 0 -51.833 6.66699 -67.5 20s-23.5 33.666 -23.5 60.999c0 56.667 32.333 85 97 85h132v-30zM408.002 668h-65.998
c0 -21.333 -5.83301 -38.5 -17.5 -51.5s-29.834 -19.5 -54.501 -19.5s-42.834 6.5 -54.501 19.5s-17.5 30.167 -17.5 51.5h-66c0 -40 13 -70.833 39 -92.5s59 -32.5 99 -32.5s73 10.833 99 32.5s39 52.5 39 92.5z" />
    <glyph glyph-name="Aogonek" unicode="&#x104;" horiz-adv-x="625" 
d="M361 666l-96.999 0.00292969l-247 -666h89l61 175h291l62 -175c-8.66699 -6 -17.334 -12.333 -26.001 -19s-16.5 -14.334 -23.5 -23.001s-12.667 -18.334 -17 -29.001s-6.5 -22.334 -6.5 -35.001c0 -24.667 7.33301 -44.5 22 -59.5s37 -22.5 67 -22.5
c13.333 0 25.833 1.16699 37.5 3.5s23.167 5.5 34.5 9.5l-8 46c-5.33301 -2 -11.333 -3.66699 -18 -5s-14 -2 -22 -2c-27.333 0 -41 12.333 -41 37c0 12 3 22.833 9 32.5s13.5 18.5 22.5 26.5s18.667 15.167 29 21.5l29.5 18.5zM313.001 595.003l120 -346h-240z" />
    <glyph glyph-name="aogonek" unicode="&#x105;" horiz-adv-x="512" 
d="M438 -129c-12.667 -4.66699 -26.333 -7.00293 -41 -7.00293c-27.333 0 -41 11.667 -41 35c0 12 2.83301 22.833 8.5 32.5s13 18.5 22 26.5s18.667 15.333 29 22l30.5 20v329c0 54 -15.833 94 -47.5 120s-78.834 39 -141.501 39c-63.333 0 -122 -12.667 -176 -38l15 -68
c23.333 10.667 47.333 18.834 72 24.501s50.667 8.5 78 8.5c38.667 0 67.334 -7.33301 86.001 -22s28 -38 28 -70v-44h-144c-24.667 0 -47.334 -3 -68.001 -9s-38.334 -15 -53.001 -27s-26.167 -27.333 -34.5 -46s-12.5 -40.667 -12.5 -66c0 -43.333 13 -77.666 39 -102.999
s62.667 -38 110 -38c38 0 71.167 7.83301 99.5 23.5s50.833 38.167 67.5 67.5v-81c-9.33301 -5.33301 -18.666 -11.5 -27.999 -18.5s-17.666 -15 -24.999 -24s-13.5 -19 -18.5 -30s-7.5 -23.5 -7.5 -37.5c0 -23.333 7.33301 -42.166 22 -56.499s37 -21.5 67 -21.5
c14 0 27.5 1.33301 40.5 4s23.5 5.66699 31.5 9zM360.001 186.997c0 -18.667 -3.5 -36.332 -10.5 -52.999s-16.667 -31.167 -29 -43.5s-26.833 -22 -43.5 -29s-35 -10.5 -55 -10.5c-29.333 0 -51.833 6.66699 -67.5 20s-23.5 33.666 -23.5 60.999c0 56.667 32.333 85 97 85
h132v-30z" />
    <glyph glyph-name="Cacute" unicode="&#x106;" horiz-adv-x="593" 
d="M131 333c0 85.333 22.667 151.333 68 198s109 70 191 70c30 0 57.333 -2.66699 82 -8s47.667 -12 69 -20l14 71c-19.333 9.33301 -45 17.333 -77 24s-66.667 10 -104 10c-51.333 0 -97.333 -8.16699 -138 -24.5s-75.334 -39.5 -104.001 -69.5s-50.667 -66.167 -66 -108.5
s-23 -89.833 -23 -142.5s7.66699 -100.167 23 -142.5s37.333 -78.5 66 -108.5s63.334 -53.167 104.001 -69.5s86.667 -24.5 138 -24.5c37.333 0 72 3.33301 104 10s57.667 14.667 77 24l-14 71c-21.333 -8 -44.333 -14.667 -69 -20s-52 -8 -82 -8
c-82 0 -145.667 23.333 -191 70s-68 112.667 -68 198zM508 862h-113l-83 -132h82z" />
    <glyph glyph-name="cacute" unicode="&#x107;" horiz-adv-x="439" 
d="M211 543h81l88 152h-108zM407 458c-16.667 9.33301 -37.5 16.6631 -62.5 21.9961s-50.833 8 -77.5 8c-74.667 0 -131.334 -22 -170.001 -66s-58 -105 -58 -183s19.333 -139 58 -183s95.334 -66 170.001 -66c26.667 0 52.5 2.5 77.5 7.5s45.833 12.167 62.5 21.5l-14 65
c-15.333 -7.33301 -32.666 -13.166 -51.999 -17.499s-39.666 -6.5 -60.999 -6.5c-28.667 0 -52.834 4.33301 -72.501 13s-35.667 20.834 -48 36.501s-21.166 34.5 -26.499 56.5s-8 46.333 -8 73s2.66699 51 8 73s14.166 40.833 26.499 56.5s28.333 27.834 48 36.501
s43.834 13 72.501 13c21.333 0 41.666 -2.16699 60.999 -6.5s36.666 -10.166 51.999 -17.499z" />
    <glyph glyph-name="Ccircumflex" unicode="&#x108;" horiz-adv-x="593" 
d="M131 333c0 85.333 22.667 151.333 68 198s109 70 191 70c30 0 57.333 -2.66699 82 -8s47.667 -12 69 -20l14 71c-19.333 9.33301 -45 17.333 -77 24s-66.667 10 -104 10c-51.333 0 -97.333 -8.16699 -138 -24.5s-75.334 -39.5 -104.001 -69.5s-50.667 -66.167 -66 -108.5
s-23 -89.833 -23 -142.5s7.66699 -100.167 23 -142.5s37.333 -78.5 66 -108.5s63.334 -53.167 104.001 -69.5s86.667 -24.5 138 -24.5c37.333 0 72 3.33301 104 10s57.667 14.667 77 24l-14 71c-21.333 -8 -44.333 -14.667 -69 -20s-52 -8 -82 -8
c-82 0 -145.667 23.333 -191 70s-68 112.667 -68 198zM403 862h-83l-113 -132h83l72 85l73 -85h83z" />
    <glyph glyph-name="ccircumflex" unicode="&#x109;" horiz-adv-x="439" 
d="M299 695h-86l-103 -152h80l66 102l66 -102h80zM407 458c-16.667 9.33301 -37.5 16.6631 -62.5 21.9961s-50.833 8 -77.5 8c-74.667 0 -131.334 -22 -170.001 -66s-58 -105 -58 -183s19.333 -139 58 -183s95.334 -66 170.001 -66c26.667 0 52.5 2.5 77.5 7.5
s45.833 12.167 62.5 21.5l-14 65c-15.333 -7.33301 -32.666 -13.166 -51.999 -17.499s-39.666 -6.5 -60.999 -6.5c-28.667 0 -52.834 4.33301 -72.501 13s-35.667 20.834 -48 36.501s-21.166 34.5 -26.499 56.5s-8 46.333 -8 73s2.66699 51 8 73s14.166 40.833 26.499 56.5
s28.333 27.834 48 36.501s43.834 13 72.501 13c21.333 0 41.666 -2.16699 60.999 -6.5s36.666 -10.166 51.999 -17.499z" />
    <glyph glyph-name="Cdotaccent" unicode="&#x10a;" horiz-adv-x="593" 
d="M306 801c0 -15.333 5.16699 -28.833 15.5 -40.5s24.166 -17.5 41.499 -17.5c18 0 32.167 5.83301 42.5 17.5s15.5 25.167 15.5 40.5c0 16 -5.16699 29.667 -15.5 41s-24.5 17 -42.5 17c-17.333 0 -31.166 -5.66699 -41.499 -17s-15.5 -25 -15.5 -41zM131 333
c0 85.333 22.667 151.333 68 198s109 70 191 70c30 0 57.333 -2.66699 82 -8s47.667 -12 69 -20l14 71c-19.333 9.33301 -45 17.333 -77 24s-66.667 10 -104 10c-51.333 0 -97.333 -8.16699 -138 -24.5s-75.334 -39.5 -104.001 -69.5s-50.667 -66.167 -66 -108.5
s-23 -89.833 -23 -142.5s7.66699 -100.167 23 -142.5s37.333 -78.5 66 -108.5s63.334 -53.167 104.001 -69.5s86.667 -24.5 138 -24.5c37.333 0 72 3.33301 104 10s57.667 14.667 77 24l-14 71c-21.333 -8 -44.333 -14.667 -69 -20s-52 -8 -82 -8
c-82 0 -145.667 23.333 -191 70s-68 112.667 -68 198z" />
    <glyph glyph-name="cdotaccent" unicode="&#x10b;" horiz-adv-x="439" 
d="M407 458c-16.667 9.33301 -37.5 16.6631 -62.5 21.9961s-50.833 8 -77.5 8c-74.667 0 -131.334 -22 -170.001 -66s-58 -105 -58 -183s19.333 -139 58 -183s95.334 -66 170.001 -66c26.667 0 52.5 2.5 77.5 7.5s45.833 12.167 62.5 21.5l-14 65
c-15.333 -7.33301 -32.666 -13.166 -51.999 -17.499s-39.666 -6.5 -60.999 -6.5c-28.667 0 -52.834 4.33301 -72.501 13s-35.667 20.834 -48 36.501s-21.166 34.5 -26.499 56.5s-8 46.333 -8 73s2.66699 51 8 73s14.166 40.833 26.499 56.5s28.333 27.834 48 36.501
s43.834 13 72.501 13c21.333 0 41.666 -2.16699 60.999 -6.5s36.666 -10.166 51.999 -17.499zM197 610.997c0 -15.333 5.16699 -28.833 15.5 -40.5s24.166 -17.5 41.499 -17.5c18 0 32.167 5.83301 42.5 17.5s15.5 25.167 15.5 40.5s-5.16699 28.833 -15.5 40.5
s-24.5 17.5 -42.5 17.5c-17.333 0 -31.166 -5.83301 -41.499 -17.5s-15.5 -25.167 -15.5 -40.5z" />
    <glyph glyph-name="Ccaron" unicode="&#x10c;" horiz-adv-x="593" 
d="M131 333c0 85.333 22.667 151.333 68 198s109 70 191 70c30 0 57.333 -2.66699 82 -8s47.667 -12 69 -20l14 71c-19.333 9.33301 -45 17.333 -77 24s-66.667 10 -104 10c-51.333 0 -97.333 -8.16699 -138 -24.5s-75.334 -39.5 -104.001 -69.5s-50.667 -66.167 -66 -108.5
s-23 -89.833 -23 -142.5s7.66699 -100.167 23 -142.5s37.333 -78.5 66 -108.5s63.334 -53.167 104.001 -69.5s86.667 -24.5 138 -24.5c37.333 0 72 3.33301 104 10s57.667 14.667 77 24l-14 71c-21.333 -8 -44.333 -14.667 -69 -20s-52 -8 -82 -8
c-82 0 -145.667 23.333 -191 70s-68 112.667 -68 198zM521 862h-83l-73 -86l-72 86h-83l113 -132h83z" />
    <glyph glyph-name="ccaron" unicode="&#x10d;" horiz-adv-x="439" 
d="M405 695h-80l-66 -102l-66 102h-80l103 -152h86zM407 458c-16.667 9.33301 -37.5 16.6631 -62.5 21.9961s-50.833 8 -77.5 8c-74.667 0 -131.334 -22 -170.001 -66s-58 -105 -58 -183s19.333 -139 58 -183s95.334 -66 170.001 -66c26.667 0 52.5 2.5 77.5 7.5
s45.833 12.167 62.5 21.5l-14 65c-15.333 -7.33301 -32.666 -13.166 -51.999 -17.499s-39.666 -6.5 -60.999 -6.5c-28.667 0 -52.834 4.33301 -72.501 13s-35.667 20.834 -48 36.501s-21.166 34.5 -26.499 56.5s-8 46.333 -8 73s2.66699 51 8 73s14.166 40.833 26.499 56.5
s28.333 27.834 48 36.501s43.834 13 72.501 13c21.333 0 41.666 -2.16699 60.999 -6.5s36.666 -10.166 51.999 -17.499z" />
    <glyph glyph-name="Dcaron" unicode="&#x10e;" horiz-adv-x="673" 
d="M79 0l237 0.00195312c46.667 0 89.5 8.16699 128.5 24.5s72.667 39.166 101 68.499s50.333 64.333 66 105s23.5 85.667 23.5 135s-7.83301 94.333 -23.5 135s-37.667 75.667 -66 105s-62 52.166 -101 68.499s-81.833 24.5 -128.5 24.5h-237v-666zM168 76.002v513.998h145
c32 0 62.333 -5.5 91 -16.5s53.5 -27.167 74.5 -48.5s37.667 -48.166 50 -80.499s18.5 -69.5 18.5 -111.5s-6.16699 -79.167 -18.5 -111.5s-29 -59.166 -50 -80.499s-45.833 -37.5 -74.5 -48.5s-59 -16.5 -91 -16.5h-145zM454 862h-83l-73 -86l-72 86h-83l113 -132h83z" />
    <glyph glyph-name="dcaron" unicode="&#x10f;" horiz-adv-x="693" 
d="M703 666h-100l-46 -213h65zM39 239c0 -34.667 3.66699 -67.168 11 -97.501s18.666 -56.666 33.999 -78.999s34.833 -40 58.5 -53s52.167 -19.5 85.5 -19.5c39.333 0 72.5 9.16699 99.5 27.5s47.833 42.833 62.5 73.5v-91h83v666h-86v-280
c-14.667 31.333 -35 56.166 -61 74.499s-58.333 27.5 -97 27.5c-33.333 0 -62 -6.5 -86 -19.5s-43.667 -30.667 -59 -53s-26.666 -48.666 -33.999 -78.999s-11 -62.833 -11 -97.5zM125 238.999c0 26 2.33301 50.002 7 72.002s12 41 22 57s23 28.5 39 37.5
s35.333 13.5 58 13.5s42.667 -4.83301 60 -14.5s31.5 -22.667 42.5 -39s19.333 -35.333 25 -57s8.5 -44.834 8.5 -69.501s-2.83301 -47.834 -8.5 -69.501s-14 -40.667 -25 -57s-25.167 -29.333 -42.5 -39s-37.333 -14.5 -60 -14.5s-42 4.5 -58 13.5s-29 21.5 -39 37.5
s-17.333 35 -22 57s-7 46 -7 72z" />
    <glyph glyph-name="Dcroat" unicode="&#x110;" horiz-adv-x="685" 
d="M27 296l67 0.00195312v-296h237c46.667 0 89.5 8.16699 128.5 24.5s72.667 39.166 101 68.499s50.333 64.333 66 105s23.5 85.667 23.5 135s-7.83301 94.333 -23.5 135s-37.667 75.667 -66 105s-62 52.166 -101 68.499s-81.833 24.5 -128.5 24.5h-237v-295h-67v-75z
M183 76.002v219.998h196v75h-196v219h145c32 0 62.333 -5.5 91 -16.5s53.5 -27.167 74.5 -48.5s37.667 -48.166 50 -80.499s18.5 -69.5 18.5 -111.5s-6.16699 -79.167 -18.5 -111.5s-29 -59.166 -50 -80.499s-45.833 -37.5 -74.5 -48.5s-59 -16.5 -91 -16.5h-145z" />
    <glyph glyph-name="dcroat" unicode="&#x111;" horiz-adv-x="561" 
d="M39 239c0 -34.667 3.66699 -67.168 11 -97.501s18.666 -56.666 33.999 -78.999s34.833 -40 58.5 -53s52.167 -19.5 85.5 -19.5c39.333 0 72.5 9.16699 99.5 27.5s47.833 42.833 62.5 73.5v-91h83v542h64v55h-64v69h-86v-69h-112v-55h112v-156
c-14.667 31.333 -35 56.166 -61 74.499s-58.333 27.5 -97 27.5c-33.333 0 -62 -6.5 -86 -19.5s-43.667 -30.667 -59 -53s-26.666 -48.666 -33.999 -78.999s-11 -62.833 -11 -97.5zM125 238.999c0 26 2.33301 50.002 7 72.002s12 41 22 57s23 28.5 39 37.5
s35.333 13.5 58 13.5s42.667 -4.83301 60 -14.5s31.5 -22.667 42.5 -39s19.333 -35.333 25 -57s8.5 -44.834 8.5 -69.501s-2.83301 -47.834 -8.5 -69.501s-14 -40.667 -25 -57s-25.167 -29.333 -42.5 -39s-37.333 -14.5 -60 -14.5s-42 4.5 -58 13.5s-29 21.5 -39 37.5
s-17.333 35 -22 57s-7 46 -7 72z" />
    <glyph glyph-name="Emacron" unicode="&#x112;" horiz-adv-x="556" 
d="M78 0h430v76h-342v227h319v76h-319v211h341v76h-429v-666zM452 756v68h-313v-68h313z" />
    <glyph glyph-name="emacron" unicode="&#x113;" horiz-adv-x="487" 
d="M451 209v52.998c0 32.667 -3.5 62.834 -10.5 90.501s-18.167 51.5 -33.5 71.5s-35 35.667 -59 47s-53.333 17 -88 17c-36.667 0 -68.834 -6.16699 -96.501 -18.5s-50.667 -29.5 -69 -51.5s-32 -48.167 -41 -78.5s-13.5 -63.833 -13.5 -100.5s4.66699 -70.167 14 -100.5
s23.5 -56.5 42.5 -78.5s43.167 -39.167 72.5 -51.5s64 -18.5 104 -18.5c34 0 65.667 3.33301 95 10s55 15.667 77 27l-14 60c-21.333 -9.33301 -44.166 -17.166 -68.499 -23.499s-50.166 -9.5 -77.499 -9.5c-55.333 0 -94.833 13.667 -118.5 41s-36.834 65.333 -39.501 114
h324zM259 426.998c20 0 37.001 -3.49805 51.001 -10.498s25.333 -16.833 34 -29.5s15 -27.834 19 -45.501s6 -36.834 6 -57.501v-12h-242c3.33301 52 15.666 90.833 36.999 116.5s53 38.5 95 38.5zM391.001 570v67h-265v-67h265z" />
    <glyph glyph-name="Ebreve" unicode="&#x114;" horiz-adv-x="556" 
d="M78 0h430v76h-342v227h319v76h-319v211h341v76h-429v-666zM377 849c0 -19.333 -6.16797 -34.667 -18.501 -46s-31.166 -17 -56.499 -17c-24.667 0 -43.334 5.5 -56.001 16.5s-19 26.5 -19 46.5h-68c0 -38 13.167 -67 39.5 -87s60.833 -30 103.5 -30s77.334 10 104.001 30
s40 49 40 87h-69z" />
    <glyph glyph-name="ebreve" unicode="&#x115;" horiz-adv-x="487" 
d="M451 209v52.998c0 32.667 -3.5 62.834 -10.5 90.501s-18.167 51.5 -33.5 71.5s-35 35.667 -59 47s-53.333 17 -88 17c-36.667 0 -68.834 -6.16699 -96.501 -18.5s-50.667 -29.5 -69 -51.5s-32 -48.167 -41 -78.5s-13.5 -63.833 -13.5 -100.5s4.66699 -70.167 14 -100.5
s23.5 -56.5 42.5 -78.5s43.167 -39.167 72.5 -51.5s64 -18.5 104 -18.5c34 0 65.667 3.33301 95 10s55 15.667 77 27l-14 60c-21.333 -9.33301 -44.166 -17.166 -68.499 -23.499s-50.166 -9.5 -77.499 -9.5c-55.333 0 -94.833 13.667 -118.5 41s-36.834 65.333 -39.501 114
h324zM259 426.998c20 0 37.001 -3.49805 51.001 -10.498s25.333 -16.833 34 -29.5s15 -27.834 19 -45.501s6 -36.834 6 -57.501v-12h-242c3.33301 52 15.666 90.833 36.999 116.5s53 38.5 95 38.5zM403.001 668h-65.998c0 -21.333 -5.83301 -38.5 -17.5 -51.5
s-29.834 -19.5 -54.501 -19.5s-42.834 6.5 -54.501 19.5s-17.5 30.167 -17.5 51.5h-66c0 -40 13 -70.833 39 -92.5s59 -32.5 99 -32.5s73 10.833 99 32.5s39 52.5 39 92.5z" />
    <glyph glyph-name="Edotaccent" unicode="&#x116;" horiz-adv-x="556" 
d="M243 801c0 -15.333 5.16699 -28.833 15.5 -40.5s24.166 -17.5 41.499 -17.5c18 0 32.167 5.83301 42.5 17.5s15.5 25.167 15.5 40.5c0 16 -5.16699 29.667 -15.5 41s-24.5 17 -42.5 17c-17.333 0 -31.166 -5.66699 -41.499 -17s-15.5 -25 -15.5 -41zM78 0h430v76h-342
v227h319v76h-319v211h341v76h-429v-666z" />
    <glyph glyph-name="edotaccent" unicode="&#x117;" horiz-adv-x="487" 
d="M451 209v52.998c0 32.667 -3.5 62.834 -10.5 90.501s-18.167 51.5 -33.5 71.5s-35 35.667 -59 47s-53.333 17 -88 17c-36.667 0 -68.834 -6.16699 -96.501 -18.5s-50.667 -29.5 -69 -51.5s-32 -48.167 -41 -78.5s-13.5 -63.833 -13.5 -100.5s4.66699 -70.167 14 -100.5
s23.5 -56.5 42.5 -78.5s43.167 -39.167 72.5 -51.5s64 -18.5 104 -18.5c34 0 65.667 3.33301 95 10s55 15.667 77 27l-14 60c-21.333 -9.33301 -44.166 -17.166 -68.499 -23.499s-50.166 -9.5 -77.499 -9.5c-55.333 0 -94.833 13.667 -118.5 41s-36.834 65.333 -39.501 114
h324zM259 426.998c20 0 37.001 -3.49805 51.001 -10.498s25.333 -16.833 34 -29.5s15 -27.834 19 -45.501s6 -36.834 6 -57.501v-12h-242c3.33301 52 15.666 90.833 36.999 116.5s53 38.5 95 38.5zM199.001 611c0 -15.333 5.16699 -28.833 15.5 -40.5
s24.166 -17.5 41.499 -17.5c18 0 32.167 5.83301 42.5 17.5s15.5 25.167 15.5 40.5s-5.16699 28.833 -15.5 40.5s-24.5 17.5 -42.5 17.5c-17.333 0 -31.166 -5.83301 -41.499 -17.5s-15.5 -25.167 -15.5 -40.5z" />
    <glyph glyph-name="Eogonek" unicode="&#x118;" horiz-adv-x="556" 
d="M78 0l347.999 -0.000976562c-9.33301 -5.33301 -18.666 -11.5 -27.999 -18.5s-17.666 -15 -24.999 -24s-13.5 -19 -18.5 -30s-7.5 -23.5 -7.5 -37.5c0 -23.333 7.33301 -42.166 22 -56.499s37 -21.5 67 -21.5c14 0 27.5 1.33301 40.5 4s23.5 5.66699 31.5 9l-8 46
c-12.667 -4.66699 -26.334 -7 -41.001 -7c-27.333 0 -41 11.667 -41 35c0 12 2.83301 22.833 8.5 32.5s13 18.5 22 26.5s18.667 15.333 29 22l30.5 20v76h-342v227h319v76h-319v211h341v76h-429v-666z" />
    <glyph glyph-name="eogonek" unicode="&#x119;" horiz-adv-x="487" 
d="M451 209v52.998c0 32.667 -3.5 62.834 -10.5 90.501s-18.167 51.5 -33.5 71.5s-35 35.667 -59 47s-53.333 17 -88 17c-36.667 0 -68.834 -6.16699 -96.501 -18.5s-50.667 -29.5 -69 -51.5s-32 -48.167 -41 -78.5s-13.5 -63.833 -13.5 -100.5s4.66699 -70.167 14 -100.5
s23.5 -56.5 42.5 -78.5s43.167 -39.167 72.5 -51.5s64 -18.5 104 -18.5c18 0 35.667 1 53 3c-8 -3.33301 -16.667 -8 -26 -14s-18.333 -13.333 -27 -22s-15.834 -18.667 -21.501 -30s-8.5 -24.333 -8.5 -39c0 -22.667 7.5 -41 22.5 -55s37.5 -21 67.5 -21
c14 0 27.5 1.33301 40.5 4s23.5 5.66699 31.5 9l-8 46c-12.667 -4.66699 -26 -7 -40 -7c-13.333 0 -23.666 3.16699 -30.999 9.5s-11 15.5 -11 27.5c0 13.333 4 26 12 38s18.333 23.333 31 34s26.667 20.5 42 29.5s30.333 17.167 45 24.5l-14 60
c-21.333 -9.33301 -44.166 -17.166 -68.499 -23.499s-50.166 -9.5 -77.499 -9.5c-55.333 0 -94.833 13.667 -118.5 41s-36.834 65.333 -39.501 114h324zM259 426.998c20 0 37.001 -3.49805 51.001 -10.498s25.333 -16.833 34 -29.5s15 -27.834 19 -45.501
s6 -36.834 6 -57.501v-12h-242c3.33301 52 15.666 90.833 36.999 116.5s53 38.5 95 38.5z" />
    <glyph glyph-name="Ecaron" unicode="&#x11a;" horiz-adv-x="556" 
d="M78 0h430v76h-342v227h319v76h-319v211h341v76h-429v-666zM456 862h-83l-73 -86l-72 86h-83l113 -132h83z" />
    <glyph glyph-name="ecaron" unicode="&#x11b;" horiz-adv-x="487" 
d="M407 695h-80l-66 -102l-66 102h-80l103 -152h86zM451 209v52.998c0 32.667 -3.5 62.834 -10.5 90.501s-18.167 51.5 -33.5 71.5s-35 35.667 -59 47s-53.333 17 -88 17c-36.667 0 -68.834 -6.16699 -96.501 -18.5s-50.667 -29.5 -69 -51.5s-32 -48.167 -41 -78.5
s-13.5 -63.833 -13.5 -100.5s4.66699 -70.167 14 -100.5s23.5 -56.5 42.5 -78.5s43.167 -39.167 72.5 -51.5s64 -18.5 104 -18.5c34 0 65.667 3.33301 95 10s55 15.667 77 27l-14 60c-21.333 -9.33301 -44.166 -17.166 -68.499 -23.499s-50.166 -9.5 -77.499 -9.5
c-55.333 0 -94.833 13.667 -118.5 41s-36.834 65.333 -39.501 114h324zM259 426.998c20 0 37.001 -3.49805 51.001 -10.498s25.333 -16.833 34 -29.5s15 -27.834 19 -45.501s6 -36.834 6 -57.501v-12h-242c3.33301 52 15.666 90.833 36.999 116.5s53 38.5 95 38.5z" />
    <glyph glyph-name="Gcircumflex" unicode="&#x11c;" horiz-adv-x="654" 
d="M415 862h-83l-113 -132h83l72 85l73 -85h83zM43 331c0 -49.333 7.33398 -94.834 22.001 -136.501s36.5 -77.834 65.5 -108.501s65.333 -54.667 109 -72s94.167 -26 151.5 -26c18 0 36.333 0.833008 55 2.5s36.834 3.83398 54.501 6.50098s34.167 5.83398 49.5 9.50098
s29 7.5 41 11.5v280h-84v-226c-16 -3.33301 -34.5 -6.16602 -55.5 -8.49902s-41.833 -3.5 -62.5 -3.5c-82.667 0 -146.334 23.667 -191.001 71s-67 113.666 -67 198.999c0 89.333 22.833 157 68.5 203s111.167 69 196.5 69c35.333 0 68.166 -3.16699 98.499 -9.5
s59.5 -14.166 87.5 -23.499l13 73c-57.333 24 -126 36 -206 36c-56 0 -105.5 -8.33301 -148.5 -25s-79.167 -40.334 -108.5 -71.001s-51.5 -67.167 -66.5 -109.5s-22.5 -89.5 -22.5 -141.5z" />
    <glyph glyph-name="gcircumflex" unicode="&#x11d;" horiz-adv-x="546" 
d="M323 695h-86l-103 -152h80l66 102l66 -102h80zM473 478l-84.001 0.00195312v-91c-15.333 34 -36.5 59.333 -63.5 76s-58.5 25 -94.5 25c-34 0 -63.167 -6.66699 -87.5 -20s-44.333 -31 -60 -53s-27 -47.5 -34 -76.5s-10.5 -59.167 -10.5 -90.5s3.5 -61.333 10.5 -90
s18.167 -54 33.5 -76s35.166 -39.667 59.499 -53s53.833 -20 88.5 -20c36 0 67.333 9 94 27s47.667 42.667 63 74v-90c0 -21.333 -2.16699 -40.5 -6.5 -57.5s-11.666 -31.833 -21.999 -44.5s-24.5 -22.334 -42.5 -29.001s-40.333 -10 -67 -10s-53 2.83301 -79 8.5
s-51 13.167 -75 22.5l-13 -66c12 -4.66699 25 -9 39 -13s28.333 -7.33301 43 -10s29.334 -4.83398 44.001 -6.50098s28.667 -2.5 42 -2.5c40 0 74 5.5 102 16.5s51 26 69 45s31 41.333 39 67s12 53.167 12 82.5v455zM387.999 248.002c0 -24 -2.99805 -46.5 -8.99805 -67.5
s-14.833 -39 -26.5 -54s-25.667 -26.833 -42 -35.5s-34.833 -13 -55.5 -13c-44 0 -76.667 15.667 -98 47s-32 72.333 -32 123c0 50 10.833 91.167 32.5 123.5s54.167 48.5 97.5 48.5c21.333 0 40.166 -4.33301 56.499 -13s30.166 -20.667 41.499 -36s20 -33.5 26 -54.5
s9 -43.833 9 -68.5z" />
    <glyph glyph-name="Gbreve" unicode="&#x11e;" horiz-adv-x="654" 
d="M43 331c0 -49.333 7.33398 -94.834 22.001 -136.501s36.5 -77.834 65.5 -108.501s65.333 -54.667 109 -72s94.167 -26 151.5 -26c18 0 36.333 0.833008 55 2.5s36.834 3.83398 54.501 6.50098s34.167 5.83398 49.5 9.50098s29 7.5 41 11.5v280h-84v-226
c-16 -3.33301 -34.5 -6.16602 -55.5 -8.49902s-41.833 -3.5 -62.5 -3.5c-82.667 0 -146.334 23.667 -191.001 71s-67 113.666 -67 198.999c0 89.333 22.833 157 68.5 203s111.167 69 196.5 69c35.333 0 68.166 -3.16699 98.499 -9.5s59.5 -14.166 87.5 -23.499l13 73
c-57.333 24 -126 36 -206 36c-56 0 -105.5 -8.33301 -148.5 -25s-79.167 -40.334 -108.5 -71.001s-51.5 -67.167 -66.5 -109.5s-22.5 -89.5 -22.5 -141.5zM457.001 848.999c0 -19.333 -6.16797 -34.667 -18.501 -46s-31.166 -17 -56.499 -17
c-24.667 0 -43.334 5.5 -56.001 16.5s-19 26.5 -19 46.5h-68c0 -38 13.167 -67 39.5 -87s60.833 -30 103.5 -30s77.334 10 104.001 30s40 49 40 87h-69z" />
    <glyph glyph-name="gbreve" unicode="&#x11f;" horiz-adv-x="546" 
d="M473 478l-84.001 0.00195312v-91c-15.333 34 -36.5 59.333 -63.5 76s-58.5 25 -94.5 25c-34 0 -63.167 -6.66699 -87.5 -20s-44.333 -31 -60 -53s-27 -47.5 -34 -76.5s-10.5 -59.167 -10.5 -90.5s3.5 -61.333 10.5 -90s18.167 -54 33.5 -76s35.166 -39.667 59.499 -53
s53.833 -20 88.5 -20c36 0 67.333 9 94 27s47.667 42.667 63 74v-90c0 -21.333 -2.16699 -40.5 -6.5 -57.5s-11.666 -31.833 -21.999 -44.5s-24.5 -22.334 -42.5 -29.001s-40.333 -10 -67 -10s-53 2.83301 -79 8.5s-51 13.167 -75 22.5l-13 -66c12 -4.66699 25 -9 39 -13
s28.333 -7.33301 43 -10s29.334 -4.83398 44.001 -6.50098s28.667 -2.5 42 -2.5c40 0 74 5.5 102 16.5s51 26 69 45s31 41.333 39 67s12 53.167 12 82.5v455zM387.999 248.002c0 -24 -2.99805 -46.5 -8.99805 -67.5s-14.833 -39 -26.5 -54s-25.667 -26.833 -42 -35.5
s-34.833 -13 -55.5 -13c-44 0 -76.667 15.667 -98 47s-32 72.333 -32 123c0 50 10.833 91.167 32.5 123.5s54.167 48.5 97.5 48.5c21.333 0 40.166 -4.33301 56.499 -13s30.166 -20.667 41.499 -36s20 -33.5 26 -54.5s9 -43.833 9 -68.5zM415.001 668.002h-65.998
c0 -21.333 -5.83301 -38.5 -17.5 -51.5s-29.834 -19.5 -54.501 -19.5s-42.834 6.5 -54.501 19.5s-17.5 30.167 -17.5 51.5h-66c0 -40 13 -70.833 39 -92.5s59 -32.5 99 -32.5s73 10.833 99 32.5s39 52.5 39 92.5z" />
    <glyph glyph-name="Gdotaccent" unicode="&#x120;" horiz-adv-x="654" 
d="M311 801c0 -15.333 5.16699 -28.833 15.5 -40.5s24.166 -17.5 41.499 -17.5c18 0 32.167 5.83301 42.5 17.5s15.5 25.167 15.5 40.5c0 16 -5.16699 29.667 -15.5 41s-24.5 17 -42.5 17c-17.333 0 -31.166 -5.66699 -41.499 -17s-15.5 -25 -15.5 -41zM43 331
c0 -49.333 7.33398 -94.834 22.001 -136.501s36.5 -77.834 65.5 -108.501s65.333 -54.667 109 -72s94.167 -26 151.5 -26c18 0 36.333 0.833008 55 2.5s36.834 3.83398 54.501 6.50098s34.167 5.83398 49.5 9.50098s29 7.5 41 11.5v280h-84v-226
c-16 -3.33301 -34.5 -6.16602 -55.5 -8.49902s-41.833 -3.5 -62.5 -3.5c-82.667 0 -146.334 23.667 -191.001 71s-67 113.666 -67 198.999c0 89.333 22.833 157 68.5 203s111.167 69 196.5 69c35.333 0 68.166 -3.16699 98.499 -9.5s59.5 -14.166 87.5 -23.499l13 73
c-57.333 24 -126 36 -206 36c-56 0 -105.5 -8.33301 -148.5 -25s-79.167 -40.334 -108.5 -71.001s-51.5 -67.167 -66.5 -109.5s-22.5 -89.5 -22.5 -141.5z" />
    <glyph glyph-name="gdotaccent" unicode="&#x121;" horiz-adv-x="546" 
d="M473 478l-84.001 0.00195312v-91c-15.333 34 -36.5 59.333 -63.5 76s-58.5 25 -94.5 25c-34 0 -63.167 -6.66699 -87.5 -20s-44.333 -31 -60 -53s-27 -47.5 -34 -76.5s-10.5 -59.167 -10.5 -90.5s3.5 -61.333 10.5 -90s18.167 -54 33.5 -76s35.166 -39.667 59.499 -53
s53.833 -20 88.5 -20c36 0 67.333 9 94 27s47.667 42.667 63 74v-90c0 -21.333 -2.16699 -40.5 -6.5 -57.5s-11.666 -31.833 -21.999 -44.5s-24.5 -22.334 -42.5 -29.001s-40.333 -10 -67 -10s-53 2.83301 -79 8.5s-51 13.167 -75 22.5l-13 -66c12 -4.66699 25 -9 39 -13
s28.333 -7.33301 43 -10s29.334 -4.83398 44.001 -6.50098s28.667 -2.5 42 -2.5c40 0 74 5.5 102 16.5s51 26 69 45s31 41.333 39 67s12 53.167 12 82.5v455zM387.999 248.002c0 -24 -2.99805 -46.5 -8.99805 -67.5s-14.833 -39 -26.5 -54s-25.667 -26.833 -42 -35.5
s-34.833 -13 -55.5 -13c-44 0 -76.667 15.667 -98 47s-32 72.333 -32 123c0 50 10.833 91.167 32.5 123.5s54.167 48.5 97.5 48.5c21.333 0 40.166 -4.33301 56.499 -13s30.166 -20.667 41.499 -36s20 -33.5 26 -54.5s9 -43.833 9 -68.5zM216.001 611.002
c0 -15.333 5.16699 -28.833 15.5 -40.5s24.166 -17.5 41.499 -17.5c18 0 32.167 5.83301 42.5 17.5s15.5 25.167 15.5 40.5s-5.16699 28.833 -15.5 40.5s-24.5 17.5 -42.5 17.5c-17.333 0 -31.166 -5.83301 -41.499 -17.5s-15.5 -25.167 -15.5 -40.5z" />
    <glyph glyph-name="Gcommaaccent" unicode="&#x122;" horiz-adv-x="654" 
d="M445 -75h-98l-35 -175h71zM43 331c0 -49.333 7.33398 -94.834 22.001 -136.501s36.5 -77.834 65.5 -108.501s65.333 -54.667 109 -72s94.167 -26 151.5 -26c18 0 36.333 0.833008 55 2.5s36.834 3.83398 54.501 6.50098s34.167 5.83398 49.5 9.50098s29 7.5 41 11.5v280
h-84v-226c-16 -3.33301 -34.5 -6.16602 -55.5 -8.49902s-41.833 -3.5 -62.5 -3.5c-82.667 0 -146.334 23.667 -191.001 71s-67 113.666 -67 198.999c0 89.333 22.833 157 68.5 203s111.167 69 196.5 69c35.333 0 68.166 -3.16699 98.499 -9.5s59.5 -14.166 87.5 -23.499
l13 73c-57.333 24 -126 36 -206 36c-56 0 -105.5 -8.33301 -148.5 -25s-79.167 -40.334 -108.5 -71.001s-51.5 -67.167 -66.5 -109.5s-22.5 -89.5 -22.5 -141.5z" />
    <glyph glyph-name="gcommaaccent" unicode="&#x123;" horiz-adv-x="546" 
d="M220 543h101l42 152h-78zM473 478l-84.001 0.00195312v-91c-15.333 34 -36.5 59.333 -63.5 76s-58.5 25 -94.5 25c-34 0 -63.167 -6.66699 -87.5 -20s-44.333 -31 -60 -53s-27 -47.5 -34 -76.5s-10.5 -59.167 -10.5 -90.5s3.5 -61.333 10.5 -90s18.167 -54 33.5 -76
s35.166 -39.667 59.499 -53s53.833 -20 88.5 -20c36 0 67.333 9 94 27s47.667 42.667 63 74v-90c0 -21.333 -2.16699 -40.5 -6.5 -57.5s-11.666 -31.833 -21.999 -44.5s-24.5 -22.334 -42.5 -29.001s-40.333 -10 -67 -10s-53 2.83301 -79 8.5s-51 13.167 -75 22.5l-13 -66
c12 -4.66699 25 -9 39 -13s28.333 -7.33301 43 -10s29.334 -4.83398 44.001 -6.50098s28.667 -2.5 42 -2.5c40 0 74 5.5 102 16.5s51 26 69 45s31 41.333 39 67s12 53.167 12 82.5v455zM387.999 248.002c0 -24 -2.99805 -46.5 -8.99805 -67.5s-14.833 -39 -26.5 -54
s-25.667 -26.833 -42 -35.5s-34.833 -13 -55.5 -13c-44 0 -76.667 15.667 -98 47s-32 72.333 -32 123c0 50 10.833 91.167 32.5 123.5s54.167 48.5 97.5 48.5c21.333 0 40.166 -4.33301 56.499 -13s30.166 -20.667 41.499 -36s20 -33.5 26 -54.5s9 -43.833 9 -68.5z" />
    <glyph glyph-name="Hcircumflex" unicode="&#x124;" horiz-adv-x="671" 
d="M78 0h88v301h339v-301h88v666h-88v-287h-339v287h-88v-666zM376 862h-83l-113 -132h83l72 85l73 -85h83z" />
    <glyph glyph-name="hcircumflex" unicode="&#x125;" horiz-adv-x="540" 
d="M472 0l-0.00195312 325.001c0 51.333 -12.167 91.333 -36.5 120s-63.5 43 -117.5 43c-40 0 -73.167 -9.66699 -99.5 -29s-46.166 -45 -59.499 -77v284h-86v-666h86v256c0 50 12.333 88.833 37 116.5s56 41.5 94 41.5c32.667 0 56.834 -8.83301 72.501 -26.5
s23.5 -42.834 23.5 -75.501v-312h86zM158.998 862.001h-83l-113 -132h83l72 85l73 -85h83z" />
    <glyph glyph-name="Hbar" unicode="&#x126;" horiz-adv-x="731" 
d="M623 0v501h76v56h-76v109h-88v-109h-339v109h-88v-109h-75v-56h75v-501h88v301h339v-301h88zM196 379v122h339v-122h-339z" />
    <glyph glyph-name="hbar" unicode="&#x127;" horiz-adv-x="554" 
d="M24 542l62.999 0.000976562v-542h86v256c0 50 12.5 88.833 37.5 116.5s56.5 41.5 94.5 41.5c32.667 0 56.834 -8.83301 72.501 -26.5s23.5 -42.834 23.5 -75.501v-312h86v325c0 51.333 -12.167 91.333 -36.5 120s-63.5 43 -117.5 43c-40 0 -73.333 -9.66699 -100 -29
s-46.667 -45 -60 -77v160h112v55h-112v69h-86v-69h-63v-55z" />
    <glyph glyph-name="Itilde" unicode="&#x128;" 
d="M83 0h88v666h-88v-666zM243 849c-4 -11.333 -9.00098 -21.8311 -15.001 -31.498s-16 -14.5 -30 -14.5c-8.66699 0 -18.334 2.33301 -29.001 7l-34 15c-12 5.33301 -24.333 10.333 -37 15s-25 7 -37 7c-27.333 0 -48.333 -7.83301 -63 -23.5s-26.667 -38.167 -36 -67.5
l58 -21c5.33301 13.333 11 24.5 17 33.5s15.667 13.5 29 13.5c10 0 20.833 -2.33301 32.5 -7s23.834 -9.83398 36.501 -15.501s25.334 -10.834 38.001 -15.501s24.667 -7 36 -7c12.667 0 23.667 2.33301 33 7s17.5 11.167 24.5 19.5s13.167 18 18.5 29
s10.333 22.833 15 35.5z" />
    <glyph glyph-name="itilde" unicode="&#x129;" horiz-adv-x="232" 
d="M159 0v478h-86v-478h86zM224 670c-2 -5.33301 -4.16699 -10.668 -6.5 -16.001s-5 -10.166 -8 -14.499s-6.5 -8 -10.5 -11s-9.33301 -4.5 -16 -4.5c-8 0 -17 2.33301 -27 7s-20.5 9.83398 -31.5 15.501s-22.667 10.834 -35 15.501s-24.5 7 -36.5 7
c-27.333 0 -48 -7.83301 -62 -23.5s-26 -38.167 -36 -67.5l56 -21c4.66699 11.333 10 22 16 32s15 15 27 15c10 0 20.333 -2.33301 31 -7s21.667 -9.83398 33 -15.501s22.833 -10.834 34.5 -15.501s23.5 -7 35.5 -7c26.667 0 47 8.83301 61 26.5s24.667 39.167 32 64.5z" />
    <glyph glyph-name="uni012A" unicode="&#x12a;" 
d="M83 0h88v666h-88v-666zM285 756v68h-313v-68h313z" />
    <glyph glyph-name="imacron" unicode="&#x12b;" horiz-adv-x="232" 
d="M159 0v478h-86v-478h86zM250 570v67h-265v-67h265z" />
    <glyph glyph-name="Ibreve" unicode="&#x12c;" 
d="M83 0h88v666h-88v-666zM203 849c0 -19.333 -6.16797 -34.667 -18.501 -46s-31.166 -17 -56.499 -17c-24.667 0 -43.334 5.5 -56.001 16.5s-19 26.5 -19 46.5h-68c0 -38 13.167 -67 39.5 -87s60.833 -30 103.5 -30s77.334 10 104.001 30s40 49 40 87h-69z" />
    <glyph glyph-name="uni012D" unicode="&#x12d;" horiz-adv-x="232" 
d="M159 0v478h-86v-478h86zM256 668h-65.998c0 -21.333 -5.83301 -38.5 -17.5 -51.5s-29.834 -19.5 -54.501 -19.5s-42.834 6.5 -54.501 19.5s-17.5 30.167 -17.5 51.5h-66c0 -40 13 -70.833 39 -92.5s59 -32.5 99 -32.5s73 10.833 99 32.5s39 52.5 39 92.5z" />
    <glyph glyph-name="Iogonek" unicode="&#x12e;" 
d="M164 -131c-10 -3.33301 -20.667 -4.99902 -32 -4.99902c-13.333 0 -22.833 3.5 -28.5 10.5s-8.5 16.167 -8.5 27.5s2.33301 21.833 7 31.5s10.834 18.5 18.501 26.5s16 15.167 25 21.5l25.5 18.5v666h-88v-666c-14.667 -12 -28.334 -26 -41.001 -42s-19 -37 -19 -63
c0 -24.667 7 -44.667 21 -60s35.667 -23 65 -23c12 0 23.5 1.16699 34.5 3.5s20.167 5.16602 27.5 8.49902z" />
    <glyph glyph-name="iogonek" unicode="&#x12f;" horiz-adv-x="232" 
d="M58 612c0 -15.333 5.16699 -28.833 15.5 -40.5s24.5 -17.5 42.5 -17.5c17.333 0 31.166 5.83301 41.499 17.5s15.5 25.167 15.5 40.5c0 16 -5.16699 29.667 -15.5 41s-24.166 17 -41.499 17c-18 0 -32.167 -5.66699 -42.5 -17s-15.5 -25 -15.5 -41zM151 -131
c-10 -3.33301 -20.666 -4.99805 -31.999 -4.99805c-24.667 0 -37 12.667 -37 38c0 11.333 2.5 21.833 7.5 31.5s11.167 18.5 18.5 26.5s15.666 15.167 24.999 21.5s18 12.5 26 18.5v478h-86v-478c-7.33301 -5.33301 -14.666 -11.5 -21.999 -18.5s-14 -14.667 -20 -23
s-11 -17.833 -15 -28.5s-6 -22.334 -6 -35.001c0 -24.667 7.16699 -44.667 21.5 -60s36.166 -23 65.499 -23c12 0 23.833 1.16699 35.5 3.5s20.5 5.16602 26.5 8.49902z" />
    <glyph glyph-name="Idotaccent" unicode="&#x130;" 
d="M83 0h88v666h-88v-666zM71 801c0 -15.333 5.16699 -28.833 15.5 -40.5s24.166 -17.5 41.499 -17.5c18 0 32.167 5.83301 42.5 17.5s15.5 25.167 15.5 40.5c0 16 -5.16699 29.667 -15.5 41s-24.5 17 -42.5 17c-17.333 0 -31.166 -5.66699 -41.499 -17s-15.5 -25 -15.5 -41
z" />
    <glyph glyph-name="dotlessi" unicode="&#x131;" horiz-adv-x="231" 
d="M159 0v478h-86v-478h86z" />
    <glyph glyph-name="IJ" unicode="&#x132;" horiz-adv-x="627" 
d="M83 0h88v666h-88v-666zM267 7c15.333 -5.33301 33.333 -9.49902 54 -12.499s40 -4.5 58 -4.5c58 0 100.833 16 128.5 48s41.5 75 41.5 129v499h-88v-500c0 -32 -7.16699 -57 -21.5 -75s-39.833 -27 -76.5 -27c-13.333 0 -27.5 1.16699 -42.5 3.5
s-29.167 5.16602 -42.5 8.49902z" />
    <glyph glyph-name="ij" unicode="&#x133;" horiz-adv-x="463" 
d="M58 607c0 -15.333 5.16699 -28.833 15.5 -40.5s24.5 -17.5 42.5 -17.5c17.333 0 31.166 5.83301 41.499 17.5s15.5 25.167 15.5 40.5s-5.16699 28.833 -15.5 40.5s-24.166 17.5 -41.499 17.5c-18 0 -32.167 -5.83301 -42.5 -17.5s-15.5 -25.167 -15.5 -40.5zM159 0v478
h-86v-478h86zM289 607c0 -15.333 5.16699 -28.833 15.5 -40.5s24.5 -17.5 42.5 -17.5c17.333 0 31.166 5.83301 41.499 17.5s15.5 25.167 15.5 40.5s-5.16699 28.833 -15.5 40.5s-24.166 17.5 -41.499 17.5c-18 0 -32.167 -5.83301 -42.5 -17.5s-15.5 -25.167 -15.5 -40.5z
M251 -115c-7.33301 0 -14.666 0.333984 -21.999 1.00098s-14.666 2 -21.999 4l-6 -68c9.33301 -3.33301 20.166 -5.83301 32.499 -7.5s24.166 -2.5 35.499 -2.5c42 0 72.667 10.667 92 32s29 51.666 29 90.999v543h-86v-534c0 -19.333 -3.83301 -34 -11.5 -44
s-21.5 -15 -41.5 -15z" />
    <glyph glyph-name="Jcircumflex" unicode="&#x134;" horiz-adv-x="373" 
d="M14 7c15.333 -5.33301 33.333 -9.49902 54 -12.499s40 -4.5 58 -4.5c58 0 100.833 16 128.5 48s41.5 75 41.5 129v499h-88v-500c0 -32 -7.16699 -57 -21.5 -75s-39.833 -27 -76.5 -27c-13.333 0 -27.5 1.16699 -42.5 3.5s-29.167 5.16602 -42.5 8.49902zM293 862.001h-83
l-113 -132h83l72 85l73 -85h83z" />
    <glyph glyph-name="jcircumflex" unicode="&#x135;" horiz-adv-x="231" 
d="M20 -115c20 0 33.833 4.99902 41.5 14.999s11.5 24.667 11.5 44v534h86v-543c0 -39.333 -9.66699 -69.666 -29 -90.999s-50 -32 -92 -32c-11.333 0 -23.166 0.833008 -35.499 2.5s-23.166 4.16699 -32.499 7.5l6 68c7.33301 -2 14.666 -3.33301 21.999 -4
s14.666 -1 21.999 -1zM263 542.999h-80l-66 102l-66 -102h-80l103 152h86z" />
    <glyph glyph-name="Kcommaaccent" unicode="&#x136;" horiz-adv-x="591" 
d="M78 0h88v324l295 -324h114l-317 342l313 324h-114l-291 -306v306h-88v-666zM359 -75h-98l-35 -175h71z" />
    <glyph glyph-name="kcommaaccent" unicode="&#x137;" horiz-adv-x="473" 
d="M361 0h102l-220 245l211 233h-103l-192 -219v407h-86v-666h86v230zM306 -75h-98l-35 -175h71z" />
    <glyph glyph-name="kgreenlandic" unicode="&#x138;" horiz-adv-x="472" 
d="M361 0h102l-220 245l211 233h-101l-194 -216v216h-86v-478h86v228z" />
    <glyph glyph-name="Lacute" unicode="&#x139;" horiz-adv-x="510" 
d="M280 862h-113l-83 -132h82zM78 0h408v76h-320v590h-88v-666z" />
    <glyph glyph-name="lacute" unicode="&#x13a;" horiz-adv-x="271" 
d="M270 862h-113l-83 -132h82zM246 2l-3 64.999c-6 -1.33301 -12 -2.5 -18 -3.5s-12.667 -1.5 -20 -1.5c-18 0 -30.5 4.83301 -37.5 14.5s-10.5 23.167 -10.5 40.5v549h-86v-549c0 -38 7.83301 -68.167 23.5 -90.5s43.5 -33.5 83.5 -33.5c13.333 0 26 0.833008 38 2.5
s22 3.83398 30 6.50098z" />
    <glyph glyph-name="Lcommaaccent" unicode="&#x13b;" horiz-adv-x="510" 
d="M342 -75h-98l-35 -175h71zM78 0h408v76h-320v590h-88v-666z" />
    <glyph glyph-name="lcommaaccent" unicode="&#x13c;" horiz-adv-x="271" 
d="M208 -75h-98l-35 -175h71zM246 2l-3 64.999c-6 -1.33301 -12 -2.5 -18 -3.5s-12.667 -1.5 -20 -1.5c-18 0 -30.5 4.83301 -37.5 14.5s-10.5 23.167 -10.5 40.5v549h-86v-549c0 -38 7.83301 -68.167 23.5 -90.5s43.5 -33.5 83.5 -33.5c13.333 0 26 0.833008 38 2.5
s22 3.83398 30 6.50098z" />
    <glyph glyph-name="Lcaron" unicode="&#x13d;" horiz-adv-x="510" 
d="M436 666h-100l-46 -213h65zM78 0h408v76h-320v590h-88v-666z" />
    <glyph glyph-name="lcaron" unicode="&#x13e;" horiz-adv-x="355" 
d="M380 666h-100l-46 -213h65zM246 2l-3 64.999c-6 -1.33301 -12 -2.5 -18 -3.5s-12.667 -1.5 -20 -1.5c-18 0 -30.5 4.83301 -37.5 14.5s-10.5 23.167 -10.5 40.5v549h-86v-549c0 -38 7.83301 -68.167 23.5 -90.5s43.5 -33.5 83.5 -33.5c13.333 0 26 0.833008 38 2.5
s22 3.83398 30 6.50098z" />
    <glyph glyph-name="Ldot" unicode="&#x13f;" horiz-adv-x="510" 
d="M78 0h408v76h-320v590h-88v-666zM280 301c0 -17.333 5.33301 -31.5 16 -42.5s25 -16.5 43 -16.5s32.333 5.5 43 16.5s16 25.167 16 42.5s-5.33301 31.5 -16 42.5s-25 16.5 -43 16.5s-32.333 -5.5 -43 -16.5s-16 -25.167 -16 -42.5z" />
    <glyph glyph-name="ldot" unicode="&#x140;" horiz-adv-x="357" 
d="M246 2l-3 64.999c-6 -1.33301 -12 -2.5 -18 -3.5s-12.667 -1.5 -20 -1.5c-18 0 -30.5 4.83301 -37.5 14.5s-10.5 23.167 -10.5 40.5v549h-86v-549c0 -38 7.83301 -68.167 23.5 -90.5s43.5 -33.5 83.5 -33.5c13.333 0 26 0.833008 38 2.5s22 3.83398 30 6.50098z
M233 281.999c0 -17.333 5.33301 -31.5 16 -42.5s25 -16.5 43 -16.5s32.333 5.5 43 16.5s16 25.167 16 42.5s-5.33301 31.5 -16 42.5s-25 16.5 -43 16.5s-32.333 -5.5 -43 -16.5s-16 -25.167 -16 -42.5z" />
    <glyph glyph-name="Lslash" unicode="&#x141;" horiz-adv-x="517" 
d="M23 253l61 28v-281h408v76h-320v246l162 76v80l-162 -76v264h-88v-305l-61 -28v-80z" />
    <glyph glyph-name="lslash" unicode="&#x142;" horiz-adv-x="273" 
d="M19 281l52 25.999v-190c0 -38 7.83301 -68.167 23.5 -90.5s43.5 -33.5 83.5 -33.5c13.333 0 26 0.833008 38 2.5s22 3.83398 30 6.50098l-3 65c-6 -1.33301 -12 -2.5 -18 -3.5s-12.667 -1.5 -20 -1.5c-18 0 -30.5 4.83301 -37.5 14.5s-10.5 23.167 -10.5 40.5v234l86 45
v82l-86 -45v233h-86v-277l-52 -26v-82z" />
    <glyph glyph-name="Nacute" unicode="&#x143;" horiz-adv-x="693" 
d="M485 862h-113l-83 -132h82zM78 0h85v529l365 -529h87v666h-85v-529l-365 529h-87v-666z" />
    <glyph glyph-name="nacute" unicode="&#x144;" horiz-adv-x="540" 
d="M227 543h81l88 152h-108zM472 0l-0.000976562 325c0 51.333 -12.167 91.333 -36.5 120s-63.5 43 -117.5 43c-41.333 0 -75.333 -10.167 -102 -30.5s-46.667 -46.166 -60 -77.499v98h-83v-478h86v256c0 50 12.333 88.833 37 116.5s56 41.5 94 41.5
c32.667 0 56.834 -8.83301 72.501 -26.5s23.5 -42.834 23.5 -75.501v-312h86z" />
    <glyph glyph-name="Ncommaaccent" unicode="&#x145;" horiz-adv-x="693" 
d="M405 -75h-98l-35 -175h71zM78 0h85v529l365 -529h87v666h-85v-529l-365 529h-87v-666z" />
    <glyph glyph-name="ncommaaccent" unicode="&#x146;" horiz-adv-x="540" 
d="M329 -75h-98l-35 -175h71zM472 0l-0.000976562 325c0 51.333 -12.167 91.333 -36.5 120s-63.5 43 -117.5 43c-41.333 0 -75.333 -10.167 -102 -30.5s-46.667 -46.166 -60 -77.499v98h-83v-478h86v256c0 50 12.333 88.833 37 116.5s56 41.5 94 41.5
c32.667 0 56.834 -8.83301 72.501 -26.5s23.5 -42.834 23.5 -75.501v-312h86z" />
    <glyph glyph-name="Ncaron" unicode="&#x147;" horiz-adv-x="693" 
d="M78 0h85v529l365 -529h87v666h-85v-529l-365 529h-87v-666zM504 862h-83l-73 -86l-72 86h-83l113 -132h83z" />
    <glyph glyph-name="ncaron" unicode="&#x148;" horiz-adv-x="540" 
d="M418 695h-80l-66 -102l-66 102h-80l103 -152h86zM472 0l-0.000976562 325c0 51.333 -12.167 91.333 -36.5 120s-63.5 43 -117.5 43c-41.333 0 -75.333 -10.167 -102 -30.5s-46.667 -46.166 -60 -77.499v98h-83v-478h86v256c0 50 12.333 88.833 37 116.5s56 41.5 94 41.5
c32.667 0 56.834 -8.83301 72.501 -26.5s23.5 -42.834 23.5 -75.501v-312h86z" />
    <glyph glyph-name="napostrophe" unicode="&#x149;" horiz-adv-x="647" 
d="M157 666h-100l-46 -213h65zM579 0l-0.000976562 325c0 51.333 -12.167 91.333 -36.5 120s-63.5 43 -117.5 43c-41.333 0 -75.333 -10.167 -102 -30.5s-46.667 -46.166 -60 -77.499v98h-83v-478h86v256c0 50 12.333 88.833 37 116.5s56 41.5 94 41.5
c32.667 0 56.834 -8.83301 72.501 -26.5s23.5 -42.834 23.5 -75.501v-312h86z" />
    <glyph glyph-name="Eng" unicode="&#x14a;" horiz-adv-x="693" 
d="M615 666l-84.999 0.000976562v-523l-365 523h-87v-666h85v522l363 -510c-5.33301 -18.667 -12.333 -34.834 -21 -48.501s-19.167 -25.834 -31.5 -36.501s-26.333 -20.167 -42 -28.5s-32.834 -16.166 -51.501 -23.499l28 -63c74 24.667 127 59.167 159 103.5
s48 98.5 48 162.5v588z" />
    <glyph glyph-name="eng" unicode="&#x14b;" horiz-adv-x="540" 
d="M279 -127l36.998 -61.001c54.667 28 94.334 62 119.001 102s37 88 37 144v267c0 51.333 -12.167 91.333 -36.5 120s-63.5 43 -117.5 43c-41.333 0 -75.333 -10.167 -102 -30.5s-46.667 -46.166 -60 -77.499v98h-83v-478h86v256c0 50 12.333 88.833 37 116.5
s56 41.5 94 41.5c32.667 0 56.834 -8.83301 72.501 -26.5s23.5 -42.834 23.5 -75.501v-259c0 -42 -8.33301 -77.167 -25 -105.5s-44 -53.166 -82 -74.499z" />
    <glyph glyph-name="Omacron" unicode="&#x14c;" horiz-adv-x="692" 
d="M43 333c0 -46 6.16699 -90 18.5 -132s31 -78.667 56 -110s56.5 -56.333 94.5 -75s82.667 -28 134 -28s96 9.33301 134 28s69.5 43.667 94.5 75s43.667 68 56 110s18.5 86 18.5 132s-6.16699 90 -18.5 132s-31 78.667 -56 110s-56.5 56.333 -94.5 75s-82.667 28 -134 28
s-96 -9.33301 -134 -28s-69.5 -43.667 -94.5 -75s-43.667 -68 -56 -110s-18.5 -86 -18.5 -132zM346 61c-37.333 0 -69.5 6.66699 -96.5 20s-49.167 32 -66.5 56s-30.333 52.667 -39 86s-13 70 -13 110s4.33301 76.667 13 110s21.667 62 39 86s39.5 42.667 66.5 56
s59.167 20 96.5 20c36.667 0 68.667 -6.66699 96 -20s49.666 -32 66.999 -56s30.333 -52.667 39 -86s13 -70 13 -110s-4.33301 -76.667 -13 -110s-21.667 -62 -39 -86s-39.666 -42.667 -66.999 -56s-59.333 -20 -96 -20zM503 756v68h-313v-68h313z" />
    <glyph glyph-name="omacron" unicode="&#x14d;" horiz-adv-x="515" 
d="M390 570v67h-265v-67h265zM475 239c0 35.333 -4.5 68.166 -13.5 98.499s-22.5 56.666 -40.5 78.999s-40.667 39.833 -68 52.5s-59 19 -95 19s-67.667 -6.33301 -95 -19s-50.166 -30.167 -68.499 -52.5s-32 -48.666 -41 -78.999s-13.5 -63.166 -13.5 -98.499
s4.5 -68.166 13.5 -98.499s22.667 -56.666 41 -78.999s41.166 -39.833 68.499 -52.5s59 -19 95 -19s67.667 6.33301 95 19s50 30.167 68 52.5s31.5 48.666 40.5 78.999s13.5 63.166 13.5 98.499zM389 239c0 -56 -10.5 -100.333 -31.5 -133s-54.167 -49 -99.5 -49
s-78.666 16.5 -99.999 49.5s-32 77.167 -32 132.5s10.667 99.5 32 132.5s54.666 49.5 99.999 49.5s78.5 -16.333 99.5 -49s31.5 -77 31.5 -133z" />
    <glyph glyph-name="Obreve" unicode="&#x14e;" horiz-adv-x="692" 
d="M43 333c0 -46 6.16699 -90 18.5 -132s31 -78.667 56 -110s56.5 -56.333 94.5 -75s82.667 -28 134 -28s96 9.33301 134 28s69.5 43.667 94.5 75s43.667 68 56 110s18.5 86 18.5 132s-6.16699 90 -18.5 132s-31 78.667 -56 110s-56.5 56.333 -94.5 75s-82.667 28 -134 28
s-96 -9.33301 -134 -28s-69.5 -43.667 -94.5 -75s-43.667 -68 -56 -110s-18.5 -86 -18.5 -132zM346 61c-37.333 0 -69.5 6.66699 -96.5 20s-49.167 32 -66.5 56s-30.333 52.667 -39 86s-13 70 -13 110s4.33301 76.667 13 110s21.667 62 39 86s39.5 42.667 66.5 56
s59.167 20 96.5 20c36.667 0 68.667 -6.66699 96 -20s49.666 -32 66.999 -56s30.333 -52.667 39 -86s13 -70 13 -110s-4.33301 -76.667 -13 -110s-21.667 -62 -39 -86s-39.666 -42.667 -66.999 -56s-59.333 -20 -96 -20zM420 849c0 -19.333 -6.16797 -34.667 -18.501 -46
s-31.166 -17 -56.499 -17c-24.667 0 -43.334 5.5 -56.001 16.5s-19 26.5 -19 46.5h-68c0 -38 13.167 -67 39.5 -87s60.833 -30 103.5 -30s77.334 10 104.001 30s40 49 40 87h-69z" />
    <glyph glyph-name="obreve" unicode="&#x14f;" horiz-adv-x="515" 
d="M475 239c0 35.333 -4.5 68.166 -13.5 98.499s-22.5 56.666 -40.5 78.999s-40.667 39.833 -68 52.5s-59 19 -95 19s-67.667 -6.33301 -95 -19s-50.166 -30.167 -68.499 -52.5s-32 -48.666 -41 -78.999s-13.5 -63.166 -13.5 -98.499s4.5 -68.166 13.5 -98.499
s22.667 -56.666 41 -78.999s41.166 -39.833 68.499 -52.5s59 -19 95 -19s67.667 6.33301 95 19s50 30.167 68 52.5s31.5 48.666 40.5 78.999s13.5 63.166 13.5 98.499zM389 239c0 -56 -10.5 -100.333 -31.5 -133s-54.167 -49 -99.5 -49s-78.666 16.5 -99.999 49.5
s-32 77.167 -32 132.5s10.667 99.5 32 132.5s54.666 49.5 99.999 49.5s78.5 -16.333 99.5 -49s31.5 -77 31.5 -133zM396 668h-65.998c0 -21.333 -5.83301 -38.5 -17.5 -51.5s-29.834 -19.5 -54.501 -19.5s-42.834 6.5 -54.501 19.5s-17.5 30.167 -17.5 51.5h-66
c0 -40 13 -70.833 39 -92.5s59 -32.5 99 -32.5s73 10.833 99 32.5s39 52.5 39 92.5z" />
    <glyph glyph-name="Ohungarumlaut" unicode="&#x150;" horiz-adv-x="692" 
d="M565 862h-99l-61 -132h78zM366 862h-93l-55 -132h75zM43 333c0 -46 6.16699 -90 18.5 -132s31 -78.667 56 -110s56.5 -56.333 94.5 -75s82.667 -28 134 -28s96 9.33301 134 28s69.5 43.667 94.5 75s43.667 68 56 110s18.5 86 18.5 132s-6.16699 90 -18.5 132
s-31 78.667 -56 110s-56.5 56.333 -94.5 75s-82.667 28 -134 28s-96 -9.33301 -134 -28s-69.5 -43.667 -94.5 -75s-43.667 -68 -56 -110s-18.5 -86 -18.5 -132zM346 61c-37.333 0 -69.5 6.66699 -96.5 20s-49.167 32 -66.5 56s-30.333 52.667 -39 86s-13 70 -13 110
s4.33301 76.667 13 110s21.667 62 39 86s39.5 42.667 66.5 56s59.167 20 96.5 20c36.667 0 68.667 -6.66699 96 -20s49.666 -32 66.999 -56s30.333 -52.667 39 -86s13 -70 13 -110s-4.33301 -76.667 -13 -110s-21.667 -62 -39 -86s-39.666 -42.667 -66.999 -56
s-59.333 -20 -96 -20z" />
    <glyph glyph-name="ohungarumlaut" unicode="&#x151;" horiz-adv-x="515" 
d="M468 695h-98l-60 -152h78zM279 695h-93l-53 -152h74zM475 239c0 35.333 -4.5 68.166 -13.5 98.499s-22.5 56.666 -40.5 78.999s-40.667 39.833 -68 52.5s-59 19 -95 19s-67.667 -6.33301 -95 -19s-50.166 -30.167 -68.499 -52.5s-32 -48.666 -41 -78.999
s-13.5 -63.166 -13.5 -98.499s4.5 -68.166 13.5 -98.499s22.667 -56.666 41 -78.999s41.166 -39.833 68.499 -52.5s59 -19 95 -19s67.667 6.33301 95 19s50 30.167 68 52.5s31.5 48.666 40.5 78.999s13.5 63.166 13.5 98.499zM389 239c0 -56 -10.5 -100.333 -31.5 -133
s-54.167 -49 -99.5 -49s-78.666 16.5 -99.999 49.5s-32 77.167 -32 132.5s10.667 99.5 32 132.5s54.666 49.5 99.999 49.5s78.5 -16.333 99.5 -49s31.5 -77 31.5 -133z" />
    <glyph glyph-name="OE" unicode="&#x152;" horiz-adv-x="1005" 
d="M382 678c-58 0 -108.333 -8.33105 -151 -24.998s-78 -40 -106 -70s-48.667 -66.167 -62 -108.5s-20 -89.5 -20 -141.5s6.66699 -99.167 20 -141.5s34 -78.5 62 -108.5s63.333 -53.333 106 -70s93 -25 151 -25c24.667 0 49.334 1.16699 74.001 3.5s47 5.16602 67 8.49902
h430v76h-342v230h319v76h-319v208h342v76h-430c-20 3.33301 -42.333 6.16602 -67 8.49902s-49.334 3.5 -74.001 3.5zM523 75.002c-43.333 -8.66699 -89.334 -13 -138.001 -13c-44.667 0 -83 6.5 -115 19.5s-58.333 31.333 -79 55s-36 52.167 -46 85.5s-15 70.333 -15 111
c0 40 5 76.5 15 109.5s25.167 61.5 45.5 85.5s46.5 42.667 78.5 56s70 20 114 20c25.333 0 49.333 -1.16699 72 -3.5s45.334 -5.5 68.001 -9.5v-516z" />
    <glyph glyph-name="oe" unicode="&#x153;" horiz-adv-x="836" 
d="M800 210l0.000976562 51.9961c0 32 -3.5 61.833 -10.5 89.5s-18.167 51.5 -33.5 71.5s-35 35.833 -59 47.5s-53.333 17.5 -88 17.5c-42.667 0 -78.834 -8.33301 -108.501 -25s-53.167 -39.667 -70.5 -69c-17.333 28.667 -40.333 51.5 -69 68.5s-63 25.5 -103 25.5
c-36 0 -67.667 -6.33301 -95 -19s-50.166 -30.167 -68.499 -52.5s-32 -48.666 -41 -78.999s-13.5 -63.166 -13.5 -98.499s4.5 -68.166 13.5 -98.499s22.667 -56.666 41 -78.999s41.166 -39.833 68.499 -52.5s59 -19 95 -19c40.667 0 75.5 8.5 104.5 25.5
s52.167 40.167 69.5 69.5c15.333 -28 39.5 -50.833 72.5 -68.5s72.167 -26.5 117.5 -26.5c34 0 65.667 3.33301 95 10s55.333 15.667 78 27l-14 59c-21.333 -9.33301 -44.333 -16.833 -69 -22.5s-50.667 -8.5 -78 -8.5c-54 0 -93 13.5 -117 40.5s-37.667 65.167 -41 114.5
h324zM390.001 238.996c0 -56 -10.667 -100 -32 -132s-54.666 -48 -99.999 -48c-46 0 -79.5 16 -100.5 48s-31.5 76 -31.5 132s10.5 100 31.5 132s54.5 48 100.5 48c45.333 0 78.666 -16 99.999 -48s32 -76 32 -132zM608.001 426.996
c20.667 0 38.001 -3.49805 52.001 -10.498s25.333 -16.833 34 -29.5s15 -27.834 19 -45.501s6 -36.834 6 -57.501v-12h-243c3.33301 52 15.666 90.833 36.999 116.5s53 38.5 95 38.5z" />
    <glyph glyph-name="Racute" unicode="&#x154;" horiz-adv-x="645" 
d="M573 469c0 28.667 -4.49902 55 -13.499 79s-22.5 44.667 -40.5 62s-40.333 31 -67 41s-57.334 15 -92.001 15h-282v-666h88v271h163l174 -271h106l-188 279c47.333 12.667 84.5 36 111.5 70s40.5 74 40.5 120zM484.001 469c0 -38.667 -12 -69.5 -36 -92.5
s-57.333 -34.5 -100 -34.5h-182v252h182c43.333 0 76.833 -10.833 100.5 -32.5s35.5 -52.5 35.5 -92.5zM431.001 862h-113l-83 -132h82z" />
    <glyph glyph-name="racute" unicode="&#x155;" horiz-adv-x="337" 
d="M147 543h81l88 152h-108zM334 401v77c-6.66699 2 -13.667 3.33301 -21 4s-14.666 1 -21.999 1c-38 0 -67.333 -10.167 -88 -30.5s-35.667 -46.5 -45 -78.5v104h-85v-478h87v239c0 23.333 2.66699 45.166 8 65.499s13.5 37.833 24.5 52.5s24.833 26.167 41.5 34.5
s36 12.5 58 12.5c7.33301 0 14.666 -0.166992 21.999 -0.5s14 -1.16602 20 -2.49902z" />
    <glyph glyph-name="Rcommaaccent" unicode="&#x156;" horiz-adv-x="645" 
d="M380 -75h-98l-35 -175h71zM573 469c0 28.667 -4.49902 55 -13.499 79s-22.5 44.667 -40.5 62s-40.333 31 -67 41s-57.334 15 -92.001 15h-282v-666h88v271h163l174 -271h106l-188 279c47.333 12.667 84.5 36 111.5 70s40.5 74 40.5 120zM484.001 469
c0 -38.667 -12 -69.5 -36 -92.5s-57.333 -34.5 -100 -34.5h-182v252h182c43.333 0 76.833 -10.833 100.5 -32.5s35.5 -52.5 35.5 -92.5z" />
    <glyph glyph-name="rcommaaccent" unicode="&#x157;" horiz-adv-x="337" 
d="M166 -75h-98l-35 -175h71zM334 401v77c-6.66699 2 -13.667 3.33301 -21 4s-14.666 1 -21.999 1c-38 0 -67.333 -10.167 -88 -30.5s-35.667 -46.5 -45 -78.5v104h-85v-478h87v239c0 23.333 2.66699 45.166 8 65.499s13.5 37.833 24.5 52.5s24.833 26.167 41.5 34.5
s36 12.5 58 12.5c7.33301 0 14.666 -0.166992 21.999 -0.5s14 -1.16602 20 -2.49902z" />
    <glyph glyph-name="Rcaron" unicode="&#x158;" horiz-adv-x="645" 
d="M573 469c0 28.667 -4.49902 55 -13.499 79s-22.5 44.667 -40.5 62s-40.333 31 -67 41s-57.334 15 -92.001 15h-282v-666h88v271h163l174 -271h106l-188 279c47.333 12.667 84.5 36 111.5 70s40.5 74 40.5 120zM484.001 469c0 -38.667 -12 -69.5 -36 -92.5
s-57.333 -34.5 -100 -34.5h-182v252h182c43.333 0 76.833 -10.833 100.5 -32.5s35.5 -52.5 35.5 -92.5zM449.001 862h-83l-73 -86l-72 86h-83l113 -132h83z" />
    <glyph glyph-name="rcaron" unicode="&#x159;" horiz-adv-x="337" 
d="M351 695h-80l-66 -102l-66 102h-80l103 -152h86zM334 401v77c-6.66699 2 -13.667 3.33301 -21 4s-14.666 1 -21.999 1c-38 0 -67.333 -10.167 -88 -30.5s-35.667 -46.5 -45 -78.5v104h-85v-478h87v239c0 23.333 2.66699 45.166 8 65.499s13.5 37.833 24.5 52.5
s24.833 26.167 41.5 34.5s36 12.5 58 12.5c7.33301 0 14.666 -0.166992 21.999 -0.5s14 -1.16602 20 -2.49902z" />
    <glyph glyph-name="Sacute" unicode="&#x15a;" horiz-adv-x="560" 
d="M523 178c0 30.667 -5.99902 56.667 -17.999 78s-28.333 39.5 -49 54.5s-44.667 27.667 -72 38s-56 19.833 -86 28.5c-28.667 8 -53.5 15.5 -74.5 22.5s-38.333 14.833 -52 23.5s-23.834 19.167 -30.501 31.5s-10 27.833 -10 46.5c0 39.333 13.5 66.666 40.5 81.999
s65.167 23 114.5 23c35.333 0 69.833 -4.16699 103.5 -12.5s64.5 -18.5 92.5 -30.5l17 71c-30.667 14 -63.334 24.833 -98.001 32.5s-73.334 11.5 -116.001 11.5c-75.333 0 -134.166 -14.5 -176.499 -43.5s-63.5 -75.167 -63.5 -138.5c0 -52 18.167 -92.667 54.5 -122
s91.166 -53 164.499 -71c58 -14.667 101.333 -31.5 130 -50.5s43 -46.833 43 -83.5c0 -37.333 -14.167 -64.666 -42.5 -81.999s-66.166 -26 -113.499 -26c-36 0 -72.5 4.5 -109.5 13.5s-71.833 20.167 -104.5 33.5l-20 -71c34.667 -14 72.334 -25.667 113.001 -35
s81 -14 121 -14c75.333 0 134.5 16.667 177.5 50s64.5 80 64.5 140zM423.001 862h-113l-83 -132h82z" />
    <glyph glyph-name="sacute" unicode="&#x15b;" horiz-adv-x="426" 
d="M158 543h81l88 152h-108zM393 138c0 20.667 -4.00195 38.332 -12.002 52.999s-19 27.5 -33 38.5s-30.667 20.333 -50 28s-40.333 14.834 -63 21.501c-20 6 -37 11.333 -51 16s-25.667 9.83398 -35 15.501s-16.166 12.334 -20.499 20.001s-6.5 17.5 -6.5 29.5
c0 23.333 8.33301 39.666 25 48.999s40.334 14 71.001 14c26.667 0 52.334 -3 77.001 -9s47 -13 67 -21l16 62c-21.333 9.33301 -45.333 17.166 -72 23.499s-56.667 9.5 -90 9.5c-56.667 0 -100.5 -11 -131.5 -33s-46.5 -57 -46.5 -105c0 -37.333 13.167 -67 39.5 -89
s70.166 -41.333 131.499 -58c36.667 -10 62.5 -20.333 77.5 -31s22.5 -26.334 22.5 -47.001c0 -46.667 -32 -70 -96 -70c-26 0 -51.833 3.16699 -77.5 9.5s-51.167 14.5 -76.5 24.5l-19 -63c28 -11.333 57 -20.166 87 -26.499s59 -9.5 87 -9.5c55.333 0 99 12.833 131 38.5
s48 62.167 48 109.5z" />
    <glyph glyph-name="Scircumflex" unicode="&#x15c;" horiz-adv-x="560" 
d="M523 178c0 30.667 -5.99902 56.667 -17.999 78s-28.333 39.5 -49 54.5s-44.667 27.667 -72 38s-56 19.833 -86 28.5c-28.667 8 -53.5 15.5 -74.5 22.5s-38.333 14.833 -52 23.5s-23.834 19.167 -30.501 31.5s-10 27.833 -10 46.5c0 39.333 13.5 66.666 40.5 81.999
s65.167 23 114.5 23c35.333 0 69.833 -4.16699 103.5 -12.5s64.5 -18.5 92.5 -30.5l17 71c-30.667 14 -63.334 24.833 -98.001 32.5s-73.334 11.5 -116.001 11.5c-75.333 0 -134.166 -14.5 -176.499 -43.5s-63.5 -75.167 -63.5 -138.5c0 -52 18.167 -92.667 54.5 -122
s91.166 -53 164.499 -71c58 -14.667 101.333 -31.5 130 -50.5s43 -46.833 43 -83.5c0 -37.333 -14.167 -64.666 -42.5 -81.999s-66.166 -26 -113.499 -26c-36 0 -72.5 4.5 -109.5 13.5s-71.833 20.167 -104.5 33.5l-20 -71c34.667 -14 72.334 -25.667 113.001 -35
s81 -14 121 -14c75.333 0 134.5 16.667 177.5 50s64.5 80 64.5 140zM329.001 862h-83l-113 -132h83l72 85l73 -85h83z" />
    <glyph glyph-name="scircumflex" unicode="&#x15d;" horiz-adv-x="426" 
d="M257 695h-86l-103 -152h80l66 102l66 -102h80zM393 138c0 20.667 -4.00195 38.332 -12.002 52.999s-19 27.5 -33 38.5s-30.667 20.333 -50 28s-40.333 14.834 -63 21.501c-20 6 -37 11.333 -51 16s-25.667 9.83398 -35 15.501s-16.166 12.334 -20.499 20.001
s-6.5 17.5 -6.5 29.5c0 23.333 8.33301 39.666 25 48.999s40.334 14 71.001 14c26.667 0 52.334 -3 77.001 -9s47 -13 67 -21l16 62c-21.333 9.33301 -45.333 17.166 -72 23.499s-56.667 9.5 -90 9.5c-56.667 0 -100.5 -11 -131.5 -33s-46.5 -57 -46.5 -105
c0 -37.333 13.167 -67 39.5 -89s70.166 -41.333 131.499 -58c36.667 -10 62.5 -20.333 77.5 -31s22.5 -26.334 22.5 -47.001c0 -46.667 -32 -70 -96 -70c-26 0 -51.833 3.16699 -77.5 9.5s-51.167 14.5 -76.5 24.5l-19 -63c28 -11.333 57 -20.166 87 -26.499
s59 -9.5 87 -9.5c55.333 0 99 12.833 131 38.5s48 62.167 48 109.5z" />
    <glyph glyph-name="Scedilla" unicode="&#x15e;" horiz-adv-x="560" 
d="M370 -108c0 11.333 -2.49805 20.832 -7.49805 28.499s-11.833 13.834 -20.5 18.501s-18.667 8 -30 10s-23.333 3.33301 -36 4l7 35c74 0.666992 132.5 17.5 175.5 50.5s64.5 79.5 64.5 139.5c0 30.667 -6 56.667 -18 78s-28.333 39.5 -49 54.5s-44.667 27.667 -72 38
s-56 19.833 -86 28.5c-28.667 8 -53.5 15.5 -74.5 22.5s-38.333 14.833 -52 23.5s-23.834 19.167 -30.501 31.5s-10 27.833 -10 46.5c0 39.333 13.5 66.666 40.5 81.999s65.167 23 114.5 23c35.333 0 69.833 -4.16699 103.5 -12.5s64.5 -18.5 92.5 -30.5l17 71
c-30.667 14 -63.334 24.833 -98.001 32.5s-73.334 11.5 -116.001 11.5c-75.333 0 -134.166 -14.5 -176.499 -43.5s-63.5 -75.167 -63.5 -138.5c0 -52 18.167 -92.667 54.5 -122s91.166 -53 164.499 -71c58 -14.667 101.333 -31.5 130 -50.5s43 -46.833 43 -83.5
c0 -37.333 -14.167 -64.666 -42.5 -81.999s-66.166 -26 -113.499 -26c-36 0 -72.5 4.5 -109.5 13.5s-71.833 20.167 -104.5 33.5l-20 -71c28.667 -11.333 59.5 -21.166 92.5 -29.499s66.167 -14.166 99.5 -17.499l-17 -72l26.5 -2c9 -0.666992 17 -2 24 -4
s12.667 -4.83301 17 -8.5s6.5 -8.83398 6.5 -15.501s-2.33301 -12 -7 -16s-10.834 -7.16699 -18.501 -9.5s-16.167 -4 -25.5 -5s-19 -1.83301 -29 -2.5l3 -43c20.667 0.666992 40.334 2.66699 59.001 6s34.667 8.16602 48 14.499s24 14.333 32 24s12 21.5 12 35.5z" />
    <glyph glyph-name="Scedilla" unicode="&#xf6c1;" horiz-adv-x="560" 
d="M370 -108c0 11.333 -2.49805 20.832 -7.49805 28.499s-11.833 13.834 -20.5 18.501s-18.667 8 -30 10s-23.333 3.33301 -36 4l7 35c74 0.666992 132.5 17.5 175.5 50.5s64.5 79.5 64.5 139.5c0 30.667 -6 56.667 -18 78s-28.333 39.5 -49 54.5s-44.667 27.667 -72 38
s-56 19.833 -86 28.5c-28.667 8 -53.5 15.5 -74.5 22.5s-38.333 14.833 -52 23.5s-23.834 19.167 -30.501 31.5s-10 27.833 -10 46.5c0 39.333 13.5 66.666 40.5 81.999s65.167 23 114.5 23c35.333 0 69.833 -4.16699 103.5 -12.5s64.5 -18.5 92.5 -30.5l17 71
c-30.667 14 -63.334 24.833 -98.001 32.5s-73.334 11.5 -116.001 11.5c-75.333 0 -134.166 -14.5 -176.499 -43.5s-63.5 -75.167 -63.5 -138.5c0 -52 18.167 -92.667 54.5 -122s91.166 -53 164.499 -71c58 -14.667 101.333 -31.5 130 -50.5s43 -46.833 43 -83.5
c0 -37.333 -14.167 -64.666 -42.5 -81.999s-66.166 -26 -113.499 -26c-36 0 -72.5 4.5 -109.5 13.5s-71.833 20.167 -104.5 33.5l-20 -71c28.667 -11.333 59.5 -21.166 92.5 -29.499s66.167 -14.166 99.5 -17.499l-17 -72l26.5 -2c9 -0.666992 17 -2 24 -4
s12.667 -4.83301 17 -8.5s6.5 -8.83398 6.5 -15.501s-2.33301 -12 -7 -16s-10.834 -7.16699 -18.501 -9.5s-16.167 -4 -25.5 -5s-19 -1.83301 -29 -2.5l3 -43c20.667 0.666992 40.334 2.66699 59.001 6s34.667 8.16602 48 14.499s24 14.333 32 24s12 21.5 12 35.5z" />
    <glyph glyph-name="scedilla" unicode="&#x15f;" horiz-adv-x="426" 
d="M304 -108c0 11.333 -2.50195 20.833 -7.50195 28.5s-11.833 13.834 -20.5 18.501s-18.667 8 -30 10s-23.333 3.33301 -36 4l8 37c54 1.33301 96.667 14.666 128 39.999s47 61.333 47 108c0 20.667 -4 38.334 -12 53.001s-19 27.5 -33 38.5s-30.667 20.333 -50 28
s-40.333 14.834 -63 21.501c-20 6 -37 11.333 -51 16s-25.667 9.83398 -35 15.501s-16.166 12.334 -20.499 20.001s-6.5 17.5 -6.5 29.5c0 23.333 8.33301 39.666 25 48.999s40.334 14 71.001 14c26.667 0 52.334 -3 77.001 -9s47 -13 67 -21l16 62
c-21.333 9.33301 -45.333 17.166 -72 23.499s-56.667 9.5 -90 9.5c-56.667 0 -100.5 -11 -131.5 -33s-46.5 -57 -46.5 -105c0 -37.333 13.167 -67 39.5 -89s70.166 -41.333 131.499 -58c36.667 -10 62.5 -20.333 77.5 -31s22.5 -26.334 22.5 -47.001
c0 -46.667 -32 -70 -96 -70c-26 0 -51.833 3.16699 -77.5 9.5s-51.167 14.5 -76.5 24.5l-19 -63c43.333 -17.333 88 -28.666 134 -33.999l-18 -74l26.5 -2c9 -0.666992 17 -2 24 -4s12.667 -4.83301 17 -8.5s6.5 -8.83398 6.5 -15.501s-2.33301 -12 -7 -16
s-10.834 -7.16699 -18.501 -9.5s-16.167 -4 -25.5 -5s-19 -1.83301 -29 -2.5l3 -43c20.667 0.666992 40.334 2.66699 59.001 6s34.667 8.16602 48 14.499s24 14.333 32 24s12 21.5 12 35.5z" />
    <glyph glyph-name="scedilla" unicode="&#xf6c2;" horiz-adv-x="426" 
d="M304 -108c0 11.333 -2.50195 20.833 -7.50195 28.5s-11.833 13.834 -20.5 18.501s-18.667 8 -30 10s-23.333 3.33301 -36 4l8 37c54 1.33301 96.667 14.666 128 39.999s47 61.333 47 108c0 20.667 -4 38.334 -12 53.001s-19 27.5 -33 38.5s-30.667 20.333 -50 28
s-40.333 14.834 -63 21.501c-20 6 -37 11.333 -51 16s-25.667 9.83398 -35 15.501s-16.166 12.334 -20.499 20.001s-6.5 17.5 -6.5 29.5c0 23.333 8.33301 39.666 25 48.999s40.334 14 71.001 14c26.667 0 52.334 -3 77.001 -9s47 -13 67 -21l16 62
c-21.333 9.33301 -45.333 17.166 -72 23.499s-56.667 9.5 -90 9.5c-56.667 0 -100.5 -11 -131.5 -33s-46.5 -57 -46.5 -105c0 -37.333 13.167 -67 39.5 -89s70.166 -41.333 131.499 -58c36.667 -10 62.5 -20.333 77.5 -31s22.5 -26.334 22.5 -47.001
c0 -46.667 -32 -70 -96 -70c-26 0 -51.833 3.16699 -77.5 9.5s-51.167 14.5 -76.5 24.5l-19 -63c43.333 -17.333 88 -28.666 134 -33.999l-18 -74l26.5 -2c9 -0.666992 17 -2 24 -4s12.667 -4.83301 17 -8.5s6.5 -8.83398 6.5 -15.501s-2.33301 -12 -7 -16
s-10.834 -7.16699 -18.501 -9.5s-16.167 -4 -25.5 -5s-19 -1.83301 -29 -2.5l3 -43c20.667 0.666992 40.334 2.66699 59.001 6s34.667 8.16602 48 14.499s24 14.333 32 24s12 21.5 12 35.5z" />
    <glyph glyph-name="Scaron" unicode="&#x160;" horiz-adv-x="560" 
d="M523 178c0 30.667 -5.99902 56.667 -17.999 78s-28.333 39.5 -49 54.5s-44.667 27.667 -72 38s-56 19.833 -86 28.5c-28.667 8 -53.5 15.5 -74.5 22.5s-38.333 14.833 -52 23.5s-23.834 19.167 -30.501 31.5s-10 27.833 -10 46.5c0 39.333 13.5 66.666 40.5 81.999
s65.167 23 114.5 23c35.333 0 69.833 -4.16699 103.5 -12.5s64.5 -18.5 92.5 -30.5l17 71c-30.667 14 -63.334 24.833 -98.001 32.5s-73.334 11.5 -116.001 11.5c-75.333 0 -134.166 -14.5 -176.499 -43.5s-63.5 -75.167 -63.5 -138.5c0 -52 18.167 -92.667 54.5 -122
s91.166 -53 164.499 -71c58 -14.667 101.333 -31.5 130 -50.5s43 -46.833 43 -83.5c0 -37.333 -14.167 -64.666 -42.5 -81.999s-66.166 -26 -113.499 -26c-36 0 -72.5 4.5 -109.5 13.5s-71.833 20.167 -104.5 33.5l-20 -71c34.667 -14 72.334 -25.667 113.001 -35
s81 -14 121 -14c75.333 0 134.5 16.667 177.5 50s64.5 80 64.5 140zM437.001 862h-83l-73 -86l-72 86h-83l113 -132h83z" />
    <glyph glyph-name="scaron" unicode="&#x161;" horiz-adv-x="426" 
d="M358 695h-80l-66 -102l-66 102h-80l103 -152h86zM393 138c0 20.667 -4.00195 38.332 -12.002 52.999s-19 27.5 -33 38.5s-30.667 20.333 -50 28s-40.333 14.834 -63 21.501c-20 6 -37 11.333 -51 16s-25.667 9.83398 -35 15.501s-16.166 12.334 -20.499 20.001
s-6.5 17.5 -6.5 29.5c0 23.333 8.33301 39.666 25 48.999s40.334 14 71.001 14c26.667 0 52.334 -3 77.001 -9s47 -13 67 -21l16 62c-21.333 9.33301 -45.333 17.166 -72 23.499s-56.667 9.5 -90 9.5c-56.667 0 -100.5 -11 -131.5 -33s-46.5 -57 -46.5 -105
c0 -37.333 13.167 -67 39.5 -89s70.166 -41.333 131.499 -58c36.667 -10 62.5 -20.333 77.5 -31s22.5 -26.334 22.5 -47.001c0 -46.667 -32 -70 -96 -70c-26 0 -51.833 3.16699 -77.5 9.5s-51.167 14.5 -76.5 24.5l-19 -63c28 -11.333 57 -20.166 87 -26.499
s59 -9.5 87 -9.5c55.333 0 99 12.833 131 38.5s48 62.167 48 109.5z" />
    <glyph glyph-name="Tcommaaccent" unicode="&#x162;" horiz-adv-x="532" 
d="M315 -75h-98l-35 -175h71zM511 590v76h-490v-76h201v-590h88v590h201z" />
    <glyph glyph-name="Tcommaaccent" unicode="&#x21a;" horiz-adv-x="532" 
d="M315 -75h-98l-35 -175h71zM511 590v76h-490v-76h201v-590h88v590h201z" />
    <glyph glyph-name="tcommaaccent" unicode="&#x163;" horiz-adv-x="333" 
d="M251 -75h-98l-35 -175h71zM298 3l-1.99902 64.001c-8 -2 -16.333 -3.66699 -25 -5s-17.334 -2 -26.001 -2c-23.333 0 -39 4.83301 -47 14.5s-12 24.167 -12 43.5v287h113v73h-113v125h-86v-125h-67v-73h67v-294c0 -40 9.33301 -70 28 -90s49.334 -30 92.001 -30
c14 0 28.167 1.16699 42.5 3.5s26.166 5.16602 35.499 8.49902z" />
    <glyph glyph-name="tcommaaccent" unicode="&#x21b;" horiz-adv-x="333" 
d="M251 -75h-98l-35 -175h71zM298 3l-1.99902 64.001c-8 -2 -16.333 -3.66699 -25 -5s-17.334 -2 -26.001 -2c-23.333 0 -39 4.83301 -47 14.5s-12 24.167 -12 43.5v287h113v73h-113v125h-86v-125h-67v-73h67v-294c0 -40 9.33301 -70 28 -90s49.334 -30 92.001 -30
c14 0 28.167 1.16699 42.5 3.5s26.166 5.16602 35.499 8.49902z" />
    <glyph glyph-name="Tcaron" unicode="&#x164;" horiz-adv-x="532" 
d="M511 590v76h-490v-76h201v-590h88v590h201zM422 862h-83l-73 -86l-72 86h-83l113 -132h83z" />
    <glyph glyph-name="tcaron" unicode="&#x165;" horiz-adv-x="357" 
d="M333 563h-64l36 173h94zM298 3c-9.33301 -3.33301 -21.167 -6.16699 -35.5 -8.5s-28.5 -3.5 -42.5 -3.5c-42.667 0 -73.334 10 -92.001 30s-28 50 -28 90v294h-67v73h67v125h86v-125h113v-73h-113v-287c0 -19.333 4 -33.833 12 -43.5s23.667 -14.5 47 -14.5
c8.66699 0 17.334 0.666992 26.001 2s17 3 25 5z" />
    <glyph glyph-name="Tbar" unicode="&#x166;" horiz-adv-x="532" 
d="M437 272v72h-127v246h201v76h-490v-76h201v-246h-128v-72h128v-272h88v272h127z" />
    <glyph glyph-name="tbar" unicode="&#x167;" horiz-adv-x="332" 
d="M33 213l67 0.000976562v-102c0 -40 9.33301 -70 28 -90s49.334 -30 92.001 -30c14 0 28.167 1.16699 42.5 3.5s26.166 5.16602 35.499 8.49902l-2 64c-8 -2 -16.333 -3.66699 -25 -5s-17.667 -2 -27 -2c-22.667 0 -38 4.83301 -46 14.5s-12 24.167 -12 43.5v95h94v71h-94
v121h112v73h-111v125h-87v-125h-67v-73h67v-121h-67v-71z" />
    <glyph glyph-name="Utilde" unicode="&#x168;" horiz-adv-x="675" 
d="M599 666h-88.002v-437c0 -52 -15.167 -92.833 -45.5 -122.5s-73.166 -44.5 -128.499 -44.5s-98 14.833 -128 44.5s-45 70.5 -45 122.5v437h-88v-430c0 -33.333 5.5 -64.833 16.5 -94.5s27.333 -56 49 -79s48.834 -41.167 81.501 -54.5s70.667 -20 114 -20
s81.333 6.66699 114 20s60 31.5 82 54.5s38.5 49.333 49.5 79s16.5 61.167 16.5 94.5v430zM453.998 849c-4 -11.333 -9.00098 -21.8311 -15.001 -31.498s-16 -14.5 -30 -14.5c-8.66699 0 -18.334 2.33301 -29.001 7l-34 15c-12 5.33301 -24.333 10.333 -37 15s-25 7 -37 7
c-27.333 0 -48.333 -7.83301 -63 -23.5s-26.667 -38.167 -36 -67.5l58 -21c5.33301 13.333 11 24.5 17 33.5s15.667 13.5 29 13.5c10 0 20.833 -2.33301 32.5 -7s23.834 -9.83398 36.501 -15.501s25.334 -10.834 38.001 -15.501s24.667 -7 36 -7
c12.667 0 23.667 2.33301 33 7s17.5 11.167 24.5 19.5s13.167 18 18.5 29s10.333 22.833 15 35.5z" />
    <glyph glyph-name="utilde" unicode="&#x169;" horiz-adv-x="535" 
d="M68 478v-326.001c0 -50 12 -89.5 36 -118.5s62 -43.5 114 -43.5c40.667 0 74.167 10.167 100.5 30.5s46.166 45.833 59.499 76.5v-97h84v478h-86v-256c0 -50 -12.167 -88.833 -36.5 -116.5s-55.166 -41.5 -92.499 -41.5c-32 0 -55.5 8.83301 -70.5 26.5
s-22.5 42.834 -22.5 75.501v312h-86zM383 669.999c-2 -5.33301 -4.16699 -10.668 -6.5 -16.001s-5 -10.166 -8 -14.499s-6.5 -8 -10.5 -11s-9.33301 -4.5 -16 -4.5c-8 0 -17 2.33301 -27 7s-20.5 9.83398 -31.5 15.501s-22.667 10.834 -35 15.501s-24.5 7 -36.5 7
c-27.333 0 -48 -7.83301 -62 -23.5s-26 -38.167 -36 -67.5l56 -21c4.66699 11.333 10 22 16 32s15 15 27 15c10 0 20.333 -2.33301 31 -7s21.667 -9.83398 33 -15.501s22.833 -10.834 34.5 -15.501s23.5 -7 35.5 -7c26.667 0 47 8.83301 61 26.5s24.667 39.167 32 64.5z" />
    <glyph glyph-name="Umacron" unicode="&#x16a;" horiz-adv-x="675" 
d="M599 666h-88.002v-437c0 -52 -15.167 -92.833 -45.5 -122.5s-73.166 -44.5 -128.499 -44.5s-98 14.833 -128 44.5s-45 70.5 -45 122.5v437h-88v-430c0 -33.333 5.5 -64.833 16.5 -94.5s27.333 -56 49 -79s48.834 -41.167 81.501 -54.5s70.667 -20 114 -20
s81.333 6.66699 114 20s60 31.5 82 54.5s38.5 49.333 49.5 79s16.5 61.167 16.5 94.5v430zM493.998 756v68h-313v-68h313z" />
    <glyph glyph-name="umacron" unicode="&#x16b;" horiz-adv-x="535" 
d="M68 478v-326.001c0 -50 12 -89.5 36 -118.5s62 -43.5 114 -43.5c40.667 0 74.167 10.167 100.5 30.5s46.166 45.833 59.499 76.5v-97h84v478h-86v-256c0 -50 -12.167 -88.833 -36.5 -116.5s-55.166 -41.5 -92.499 -41.5c-32 0 -55.5 8.83301 -70.5 26.5
s-22.5 42.834 -22.5 75.501v312h-86zM405 569.999v67h-265v-67h265z" />
    <glyph glyph-name="Ubreve" unicode="&#x16c;" horiz-adv-x="675" 
d="M599 666h-88.002v-437c0 -52 -15.167 -92.833 -45.5 -122.5s-73.166 -44.5 -128.499 -44.5s-98 14.833 -128 44.5s-45 70.5 -45 122.5v437h-88v-430c0 -33.333 5.5 -64.833 16.5 -94.5s27.333 -56 49 -79s48.834 -41.167 81.501 -54.5s70.667 -20 114 -20
s81.333 6.66699 114 20s60 31.5 82 54.5s38.5 49.333 49.5 79s16.5 61.167 16.5 94.5v430zM411.998 849c0 -19.333 -6.16797 -34.667 -18.501 -46s-31.166 -17 -56.499 -17c-24.667 0 -43.334 5.5 -56.001 16.5s-19 26.5 -19 46.5h-68c0 -38 13.167 -67 39.5 -87
s60.833 -30 103.5 -30s77.334 10 104.001 30s40 49 40 87h-69z" />
    <glyph glyph-name="ubreve" unicode="&#x16d;" horiz-adv-x="535" 
d="M68 478v-326.001c0 -50 12 -89.5 36 -118.5s62 -43.5 114 -43.5c40.667 0 74.167 10.167 100.5 30.5s46.166 45.833 59.499 76.5v-97h84v478h-86v-256c0 -50 -12.167 -88.833 -36.5 -116.5s-55.166 -41.5 -92.499 -41.5c-32 0 -55.5 8.83301 -70.5 26.5
s-22.5 42.834 -22.5 75.501v312h-86zM409 667.999h-65.998c0 -21.333 -5.83301 -38.5 -17.5 -51.5s-29.834 -19.5 -54.501 -19.5s-42.834 6.5 -54.501 19.5s-17.5 30.167 -17.5 51.5h-66c0 -40 13 -70.833 39 -92.5s59 -32.5 99 -32.5s73 10.833 99 32.5s39 52.5 39 92.5z
" />
    <glyph glyph-name="Uring" unicode="&#x16e;" horiz-adv-x="675" 
d="M430 812c0 23.333 -7.66699 43 -23 59s-38.666 24 -69.999 24s-54.5 -8 -69.5 -24s-22.5 -35.667 -22.5 -59c0 -22.667 7.5 -42 22.5 -58s38.167 -24 69.5 -24s54.666 8 69.999 24s23 35.333 23 58zM288 812c0 15.333 4.33301 27.167 13 35.5s20.667 12.5 36 12.5
c32.667 0 49 -16 49 -48c0 -31.333 -16.333 -47 -49 -47c-15.333 0 -27.333 4 -36 12s-13 19.667 -13 35zM599 666.001h-88.002v-437c0 -52 -15.167 -92.833 -45.5 -122.5s-73.166 -44.5 -128.499 -44.5s-98 14.833 -128 44.5s-45 70.5 -45 122.5v437h-88v-430
c0 -33.333 5.5 -64.833 16.5 -94.5s27.333 -56 49 -79s48.834 -41.167 81.501 -54.5s70.667 -20 114 -20s81.333 6.66699 114 20s60 31.5 82 54.5s38.5 49.333 49.5 79s16.5 61.167 16.5 94.5v430z" />
    <glyph glyph-name="uring" unicode="&#x16f;" horiz-adv-x="535" 
d="M365 626c0 23.333 -7.66699 43 -23 59s-38.666 24 -69.999 24s-54.5 -8 -69.5 -24s-22.5 -35.667 -22.5 -59c0 -22.667 7.5 -42.167 22.5 -58.5s38.167 -24.5 69.5 -24.5s54.666 8.16699 69.999 24.5s23 35.833 23 58.5zM223 626c0 15.333 4.33301 27 13 35
s20.667 12 36 12c32.667 0 49 -15.667 49 -47s-16.333 -47 -49 -47c-15.333 0 -27.333 4 -36 12s-13 19.667 -13 35zM68 478v-326.001c0 -50 12 -89.5 36 -118.5s62 -43.5 114 -43.5c40.667 0 74.167 10.167 100.5 30.5s46.166 45.833 59.499 76.5v-97h84v478h-86v-256
c0 -50 -12.167 -88.833 -36.5 -116.5s-55.166 -41.5 -92.499 -41.5c-32 0 -55.5 8.83301 -70.5 26.5s-22.5 42.834 -22.5 75.501v312h-86z" />
    <glyph glyph-name="Uhungarumlaut" unicode="&#x170;" horiz-adv-x="675" 
d="M549 862h-99l-61 -132h78zM350 862h-93l-55 -132h75zM599 666h-88.002v-437c0 -52 -15.167 -92.833 -45.5 -122.5s-73.166 -44.5 -128.499 -44.5s-98 14.833 -128 44.5s-45 70.5 -45 122.5v437h-88v-430c0 -33.333 5.5 -64.833 16.5 -94.5s27.333 -56 49 -79
s48.834 -41.167 81.501 -54.5s70.667 -20 114 -20s81.333 6.66699 114 20s60 31.5 82 54.5s38.5 49.333 49.5 79s16.5 61.167 16.5 94.5v430z" />
    <glyph glyph-name="uhungarumlaut" unicode="&#x171;" horiz-adv-x="535" 
d="M68 478v-326.001c0 -50 12 -89.5 36 -118.5s62 -43.5 114 -43.5c40.667 0 74.167 10.167 100.5 30.5s46.166 45.833 59.499 76.5v-97h84v478h-86v-256c0 -50 -12.167 -88.833 -36.5 -116.5s-55.166 -41.5 -92.499 -41.5c-32 0 -55.5 8.83301 -70.5 26.5
s-22.5 42.834 -22.5 75.501v312h-86zM471 694.999h-98l-60 -152h78zM282 694.999h-93l-53 -152h74z" />
    <glyph glyph-name="Uogonek" unicode="&#x172;" horiz-adv-x="675" 
d="M599 666h-88.002v-437c0 -52 -15.167 -92.833 -45.5 -122.5s-73.166 -44.5 -128.499 -44.5s-98 14.833 -128 44.5s-45 70.5 -45 122.5v437h-88v-430c0 -33.333 5.5 -64.833 16.5 -94.5s27.333 -56 49 -79s48.834 -41.167 81.501 -54.5s70.667 -20 114 -20
c4 0 8.16699 0.166992 12.5 0.5s8.5 0.5 12.5 0.5c-17.333 -10.667 -33.333 -24.167 -48 -40.5s-22 -36.166 -22 -59.499s7.5 -42 22.5 -56s37.167 -21 66.5 -21c14.667 0 28.5 1.33301 41.5 4s23.5 5.66699 31.5 9l-8 48c-12.667 -4.66699 -26 -7 -40 -7
c-28 0 -42 11.667 -42 35c0 12 3 23.333 9 34s14.333 20.834 25 30.501s23 19 37 28l44 27.5c40 23.333 70 53.166 90 89.499s30 78.166 30 125.499v430z" />
    <glyph glyph-name="uogonek" unicode="&#x173;" horiz-adv-x="535" 
d="M68 478l0.000976562 -326.002c0 -50 12 -89.5 36 -118.5s62 -43.5 114 -43.5c40.667 0 74.167 10.167 100.5 30.5s46.166 45.833 59.499 76.5v-97c-9.33301 -5.33301 -18.5 -11.5 -27.5 -18.5s-17.167 -15 -24.5 -24s-13.333 -19 -18 -30s-7 -23.5 -7 -37.5
c0 -23.333 7.33301 -42.166 22 -56.499s37 -21.5 67 -21.5c14 0 27.5 1.33301 40.5 4s23.5 5.66699 31.5 9l-8 46c-12.667 -4.66699 -26.334 -7 -41.001 -7c-27.333 0 -41 11.667 -41 35c0 12 2.83301 22.833 8.5 32.5s13 18.5 22 26.5s18.667 15.333 29 22l30.5 20v478h-86
v-256c0 -50 -12.167 -88.833 -36.5 -116.5s-55.166 -41.5 -92.499 -41.5c-32 0 -55.5 8.83301 -70.5 26.5s-22.5 42.834 -22.5 75.501v312h-86z" />
    <glyph glyph-name="Wcircumflex" unicode="&#x174;" horiz-adv-x="855" 
d="M468 862h-83l-113 -132h83l72 85l73 -85h83zM477 666h-98l-150 -534l-134 534h-87l180 -666h82l158 582l157 -582h83l179 666h-86l-135 -534z" />
    <glyph glyph-name="wcircumflex" unicode="&#x175;" horiz-adv-x="695" 
d="M390 695h-86l-103 -152h80l66 102l66 -102h80zM394 478h-93l-110 -381l-101 381h-83l140 -478h85l116 398l115 -398h85l141 478h-84l-100 -381z" />
    <glyph glyph-name="Ycircumflex" unicode="&#x176;" horiz-adv-x="547" 
d="M537 666h-92l-171 -319l-171 319h-93l220 -397v-269h88v269zM315 862h-83l-113 -132h83l72 85l73 -85h83z" />
    <glyph glyph-name="ycircumflex" unicode="&#x177;" horiz-adv-x="429" 
d="M216 90l-123 388h-89l170 -480l-59 -176h86l224 656h-89zM266 695h-86l-103 -152h80l66 102l66 -102h80z" />
    <glyph glyph-name="Ydieresis" unicode="&#x178;" horiz-adv-x="547" 
d="M537 666h-92l-171 -319l-171 319h-93l220 -397v-269h88v269zM319 794c0 -15.333 4.66699 -27.666 14 -36.999s22 -14 38 -14c16.667 0 29.667 4.66699 39 14s14 21.666 14 36.999s-4.66699 27.666 -14 36.999s-22.333 14 -39 14c-16 0 -28.667 -4.66699 -38 -14
s-14 -21.666 -14 -36.999zM124 794c0 -15.333 4.66699 -27.666 14 -36.999s22 -14 38 -14c16.667 0 29.667 4.66699 39 14s14 21.666 14 36.999s-4.66699 27.666 -14 36.999s-22.333 14 -39 14c-16 0 -28.667 -4.66699 -38 -14s-14 -21.666 -14 -36.999z" />
    <glyph glyph-name="Zacute" unicode="&#x179;" horiz-adv-x="573" 
d="M525 0v76h-377l368 512v78h-452v-76h357l-368 -512v-78h472zM429 862h-113l-83 -132h82z" />
    <glyph glyph-name="zacute" unicode="&#x17a;" horiz-adv-x="448" 
d="M185 543h81l88 152h-108zM408 0v69h-267l262 340v69h-344v-69h245l-259 -340v-69h363z" />
    <glyph glyph-name="Zdotaccent" unicode="&#x17b;" horiz-adv-x="573" 
d="M233 801c0 -15.333 5.16699 -28.833 15.5 -40.5s24.166 -17.5 41.499 -17.5c18 0 32.167 5.83301 42.5 17.5s15.5 25.167 15.5 40.5c0 16 -5.16699 29.667 -15.5 41s-24.5 17 -42.5 17c-17.333 0 -31.166 -5.66699 -41.499 -17s-15.5 -25 -15.5 -41zM525 0v76h-377
l368 512v78h-452v-76h357l-368 -512v-78h472z" />
    <glyph glyph-name="zdotaccent" unicode="&#x17c;" horiz-adv-x="448" 
d="M408 0v69h-267l262 340v69h-344v-69h245l-259 -340v-69h363zM173 611c0 -15.333 5.16699 -28.833 15.5 -40.5s24.166 -17.5 41.499 -17.5c18 0 32.167 5.83301 42.5 17.5s15.5 25.167 15.5 40.5s-5.16699 28.833 -15.5 40.5s-24.5 17.5 -42.5 17.5
c-17.333 0 -31.166 -5.83301 -41.499 -17.5s-15.5 -25.167 -15.5 -40.5z" />
    <glyph glyph-name="Zcaron" unicode="&#x17d;" horiz-adv-x="573" 
d="M525 0v76h-377l368 512v78h-452v-76h357l-368 -512v-78h472zM455 862h-83l-73 -86l-72 86h-83l113 -132h83z" />
    <glyph glyph-name="zcaron" unicode="&#x17e;" horiz-adv-x="448" 
d="M382 695h-80l-66 -102l-66 102h-80l103 -152h86zM408 0v69h-267l262 340v69h-344v-69h245l-259 -340v-69h363z" />
    <glyph glyph-name="florin" unicode="&#x192;" horiz-adv-x="394" 
d="M141 369l-35.001 -408.998c-2.66699 -29.333 -9 -50 -19 -62s-27 -18 -51 -18c-9.33301 0 -19 0.666992 -29 2s-19.667 3.66602 -29 6.99902l-10 -64c11.333 -3.33301 24.333 -6.33301 39 -9s30.334 -4 47.001 -4c83.333 0 129.333 49.333 138 148l36 409h104v69h-98
l8 93c2.66699 28 9 47.833 19 59.5s27.333 17.5 52 17.5c12 0 23.167 -0.833008 33.5 -2.5s20.166 -4.16699 29.499 -7.5l10 63c-13.333 5.33301 -27.166 9.16602 -41.499 11.499s-30.5 3.5 -48.5 3.5c-46 0 -79.833 -12 -101.5 -36s-34.5 -60 -38.5 -108l-8 -94h-79v-69h72
z" />
    <glyph glyph-name="Aringacute" unicode="&#x1fa;" horiz-adv-x="625" 
d="M418 950h-104l-35 -104h77zM406 726c0 22.667 -7.66895 42.167 -23.002 58.5s-38.666 24.5 -69.999 24.5s-54.666 -8.16699 -69.999 -24.5s-23 -35.833 -23 -58.5c0 -15.333 3.5 -28.833 10.5 -40.5s17.167 -20.5 30.5 -26.5l-244 -659h89l61 175h291l62 -175h89
l-246 659c14 6 24.667 14.833 32 26.5s11 25.167 11 40.5zM263.998 726c0 15.333 4.33301 27 13 35s20.667 12 36 12s27.333 -4 36 -12s13 -19.667 13 -35s-4.33301 -27 -13 -35s-20.667 -12 -36 -12s-27.333 4 -36 12s-13 19.667 -13 35zM312.998 595l120 -346h-240z" />
    <glyph glyph-name="aringacute" unicode="&#x1fb;" horiz-adv-x="512" 
d="M306 752h-77l36 105h105zM171 625c0 22.667 7.66699 42.167 23 58.5s38.666 24.5 69.999 24.5s54.5 -8.16699 69.5 -24.5s22.5 -35.833 22.5 -58.5c0 -23.333 -7.5 -43 -22.5 -59s-38.167 -24 -69.5 -24s-54.666 8 -69.999 24s-23 35.667 -23 59zM215 625
c0 -15.333 4.33301 -27 13 -35s20.667 -12 36 -12s27.333 4 36 12s13 19.667 13 35s-4.33301 27 -13 35s-20.667 12 -36 12s-27.333 -4 -36 -12s-13 -19.667 -13 -35zM364 0l-0.00195312 81.002c-16.667 -29.333 -39.167 -51.833 -67.5 -67.5s-61.5 -23.5 -99.5 -23.5
c-47.333 0 -84 12.667 -110 38s-39 59.666 -39 102.999c0 25.333 4.16699 47.333 12.5 66s19.833 34 34.5 46s32.334 21 53.001 27s43.334 9 68.001 9h144v44c0 32 -9.33301 55.333 -28 70s-47.334 22 -86.001 22c-27.333 0 -53.333 -2.83301 -78 -8.5
s-48.667 -13.834 -72 -24.501l-15 68c54 25.333 112.667 38 176 38c62.667 0 109.834 -13 141.501 -39s47.5 -66 47.5 -120v-329h-82zM359.998 217.002l-132 -0.00195312c-64.667 0 -97 -28.333 -97 -85c0 -27.333 7.83301 -47.666 23.5 -60.999s38.167 -20 67.5 -20
c20 0 38.333 3.5 55 10.5s31.167 16.667 43.5 29s22 26.833 29 43.5s10.5 34.334 10.5 53.001v30z" />
    <glyph glyph-name="AEacute" unicode="&#x1fc;" horiz-adv-x="850" 
d="M802 666h-537l-248 -666h89l62 176h289l63 -176h282v76h-227l-80 230h284v76h-311l-73 208h407v76zM313 598l120 -349h-240zM491 862h-113l-83 -132h82z" />
    <glyph glyph-name="aeacute" unicode="&#x1fd;" horiz-adv-x="812" 
d="M374 543h81l88 152h-108zM776 212v52c0 32 -3.5 61.667 -10.5 89s-18 51 -33 71s-34.5 35.667 -58.5 47s-53 17 -87 17c-40.667 0 -75 -7.5 -103 -22.5s-50.667 -35.167 -68 -60.5c-13.333 27.333 -34.333 48 -63 62s-63 21 -103 21c-34.667 0 -65.667 -3.66699 -93 -11
s-51 -16.333 -71 -27l15 -65c21.333 9.33301 43.5 16.666 66.5 21.999s48.5 8 76.5 8c40 0 70.5 -8.66699 91.5 -26s31.5 -45 31.5 -83v-32h-148c-57.333 0 -100.166 -11.833 -128.499 -35.5s-42.5 -58.5 -42.5 -104.5c0 -47.333 15.167 -83.166 45.5 -107.499
s71.5 -36.5 123.5 -36.5c46 0 84.5 8.83301 115.5 26.5s57.167 42.167 78.5 73.5c15.333 -29.333 39 -53.333 71 -72s71.333 -28 118 -28c33.333 0 64.5 3.33301 93.5 10s54.833 15.667 77.5 27l-15 59c-21.333 -9.33301 -44 -16.833 -68 -22.5s-49.333 -8.5 -76 -8.5
c-28.667 0 -52.834 3.5 -72.501 10.5s-35.667 17.333 -48 31s-21.5 30.167 -27.5 49.5s-9.66699 41.333 -11 66h323zM367 181c0 -38 -12.833 -69.333 -38.5 -94s-59.5 -37 -101.5 -37c-34 0 -59 7.33301 -75 22s-24 34.667 -24 60c0 53.333 32.667 80 98 80h141v-31z
M586 427c39.333 0 67.167 -13.332 83.5 -39.999s24.5 -60.334 24.5 -101.001v-12h-240c7.33301 102 51.333 153 132 153z" />
    <glyph glyph-name="Oslashacute" unicode="&#x1fe;" horiz-adv-x="692" 
d="M483 862h-113l-83 -132h82zM43 333c0 -65.333 11.833 -125.167 35.5 -179.5s60.5 -96.5 110.5 -126.5l-46 -111h62l36 88c15.333 -5.33301 31.833 -9.33301 49.5 -12s36.167 -4 55.5 -4c51.333 0 96 9.33301 134 28s69.5 43.667 94.5 75s43.667 68 56 110
s18.5 86 18.5 132c0 32 -3 63.167 -9 93.5s-15 58.666 -27 84.999s-27.167 50.333 -45.5 72s-39.833 39.834 -64.5 54.501l47 112h-62l-37 -89c-32 11.333 -67 17 -105 17c-51.333 0 -96 -9.33301 -134 -28s-69.5 -43.667 -94.5 -75s-43.667 -68 -56 -110
s-18.5 -86 -18.5 -132zM131 332.999c0 40 4.33203 76.667 12.999 110s21.667 62 39 86s39.5 42.667 66.5 56s59.167 20 96.5 20c14.667 0 28.334 -1.16699 41.001 -3.5s24.667 -5.5 36 -9.5l-204 -492c-30 23.333 -52.167 55 -66.5 95s-21.5 86 -21.5 138zM345.999 60.999
c-28.667 0 -54.001 4 -76.001 12l203 492c30 -23.333 52.167 -55 66.5 -95s21.5 -85.667 21.5 -137c0 -40 -4.33301 -76.667 -13 -110s-21.667 -62 -39 -86s-39.666 -42.667 -66.999 -56s-59.333 -20 -96 -20z" />
    <glyph glyph-name="oslashacute" unicode="&#x1ff;" horiz-adv-x="515" 
d="M213 543h81l88 152h-108zM475 239c0 48 -8.16992 91 -24.5029 129s-41.166 67.667 -74.499 89l45 105h-49l-37 -86c-11.333 3.33301 -23.5 6.16602 -36.5 8.49902s-26.5 3.5 -40.5 3.5c-36 0 -67.667 -6.33301 -95 -19s-50.166 -30.167 -68.499 -52.5
s-32 -48.666 -41 -78.999s-13.5 -63.166 -13.5 -98.499c0 -48 8.16699 -91.167 24.5 -129.5s41.5 -67.833 75.5 -88.5l-45 -105h49l37 86c11.333 -3.33301 23.333 -6.16602 36 -8.49902s26.334 -3.5 41.001 -3.5c36 0 67.667 6.33301 95 19s50 30.167 68 52.5
s31.5 48.666 40.5 78.999s13.5 63.166 13.5 98.499zM125.997 239c0 55.333 10.668 99.501 32.001 132.501s54.666 49.5 99.999 49.5c18.667 0 35 -3 49 -9l-137 -321c-15.333 15.333 -26.5 35.666 -33.5 60.999s-10.5 54.333 -10.5 87zM388.998 239.001
c0 -56 -10.499 -100.333 -31.499 -133s-54.167 -49 -99.5 -49c-18.667 0 -35.334 3 -50.001 9l137 320c15.333 -15.333 26.5 -35.5 33.5 -60.5s10.5 -53.833 10.5 -86.5z" />
    <glyph glyph-name="Scommaaccent" unicode="&#x218;" horiz-adv-x="560" 
d="M523 178c0 30.667 -5.99902 56.667 -17.999 78s-28.333 39.5 -49 54.5s-44.667 27.667 -72 38s-56 19.833 -86 28.5c-28.667 8 -53.5 15.5 -74.5 22.5s-38.333 14.833 -52 23.5s-23.834 19.167 -30.501 31.5s-10 27.833 -10 46.5c0 39.333 13.5 66.666 40.5 81.999
s65.167 23 114.5 23c35.333 0 69.833 -4.16699 103.5 -12.5s64.5 -18.5 92.5 -30.5l17 71c-30.667 14 -63.334 24.833 -98.001 32.5s-73.334 11.5 -116.001 11.5c-75.333 0 -134.166 -14.5 -176.499 -43.5s-63.5 -75.167 -63.5 -138.5c0 -52 18.167 -92.667 54.5 -122
s91.166 -53 164.499 -71c58 -14.667 101.333 -31.5 130 -50.5s43 -46.833 43 -83.5c0 -37.333 -14.167 -64.666 -42.5 -81.999s-66.166 -26 -113.499 -26c-36 0 -72.5 4.5 -109.5 13.5s-71.833 20.167 -104.5 33.5l-20 -71c34.667 -14 72.334 -25.667 113.001 -35
s81 -14 121 -14c75.333 0 134.5 16.667 177.5 50s64.5 80 64.5 140zM335.001 -75h-98l-35 -175h71z" />
    <glyph glyph-name="scommaaccent" unicode="&#x219;" horiz-adv-x="426" 
d="M393 138c0 20.667 -4.00195 38.332 -12.002 52.999s-19 27.5 -33 38.5s-30.667 20.333 -50 28s-40.333 14.834 -63 21.501c-20 6 -37 11.333 -51 16s-25.667 9.83398 -35 15.501s-16.166 12.334 -20.499 20.001s-6.5 17.5 -6.5 29.5c0 23.333 8.33301 39.666 25 48.999
s40.334 14 71.001 14c26.667 0 52.334 -3 77.001 -9s47 -13 67 -21l16 62c-21.333 9.33301 -45.333 17.166 -72 23.499s-56.667 9.5 -90 9.5c-56.667 0 -100.5 -11 -131.5 -33s-46.5 -57 -46.5 -105c0 -37.333 13.167 -67 39.5 -89s70.166 -41.333 131.499 -58
c36.667 -10 62.5 -20.333 77.5 -31s22.5 -26.334 22.5 -47.001c0 -46.667 -32 -70 -96 -70c-26 0 -51.833 3.16699 -77.5 9.5s-51.167 14.5 -76.5 24.5l-19 -63c28 -11.333 57 -20.166 87 -26.499s59 -9.5 87 -9.5c55.333 0 99 12.833 131 38.5s48 62.167 48 109.5z
M265.998 -75.002h-98l-35 -175h71z" />
    <glyph glyph-name="circumflex" unicode="&#x2c6;" horiz-adv-x="448" 
d="M267 695h-86l-103 -152h80l66 102l66 -102h80z" />
    <glyph glyph-name="caron" unicode="&#x2c7;" horiz-adv-x="448" 
d="M370 695h-80l-66 -102l-66 102h-80l103 -152h86z" />
    <glyph glyph-name="breve" unicode="&#x2d8;" horiz-adv-x="431" 
d="M354 668h-65.998c0 -21.333 -5.83301 -38.5 -17.5 -51.5s-29.834 -19.5 -54.501 -19.5s-42.834 6.5 -54.501 19.5s-17.5 30.167 -17.5 51.5h-66c0 -40 13 -70.833 39 -92.5s59 -32.5 99 -32.5s73 10.833 99 32.5s39 52.5 39 92.5z" />
    <glyph glyph-name="dotaccent" unicode="&#x2d9;" horiz-adv-x="271" 
d="M78 607c0 -15.333 5.16699 -28.833 15.5 -40.5s24.166 -17.5 41.499 -17.5c18 0 32.167 5.83301 42.5 17.5s15.5 25.167 15.5 40.5s-5.16699 28.833 -15.5 40.5s-24.5 17.5 -42.5 17.5c-17.333 0 -31.166 -5.83301 -41.499 -17.5s-15.5 -25.167 -15.5 -40.5z" />
    <glyph glyph-name="ring" unicode="&#x2da;" horiz-adv-x="341" 
d="M263 626c0 23.333 -7.66699 43 -23 59s-38.666 24 -69.999 24s-54.5 -8 -69.5 -24s-22.5 -35.667 -22.5 -59c0 -22.667 7.5 -42.167 22.5 -58.5s38.167 -24.5 69.5 -24.5s54.666 8.16699 69.999 24.5s23 35.833 23 58.5zM121 626c0 15.333 4.33301 27 13 35
s20.667 12 36 12c32.667 0 49 -15.667 49 -47s-16.333 -47 -49 -47c-15.333 0 -27.333 4 -36 12s-13 19.667 -13 35z" />
    <glyph glyph-name="ogonek" unicode="&#x2db;" horiz-adv-x="317" 
d="M231 -129c-12.667 -4.66699 -26.335 -7.00098 -41.002 -7.00098c-27.333 0 -41 11.667 -41 35c0 12 2.83301 22.833 8.5 32.5s13 18.5 22 26.5s18.667 15.333 29 22l30.5 20h-82c-9.33301 -5.33301 -18.666 -11.5 -27.999 -18.5s-17.666 -15 -24.999 -24
s-13.5 -19 -18.5 -30s-7.5 -23.5 -7.5 -37.5c0 -23.333 7.33301 -42.166 22 -56.499s37 -21.5 67 -21.5c14 0 27.5 1.33301 40.5 4s23.5 5.66699 31.5 9z" />
    <glyph glyph-name="tilde" unicode="&#x2dc;" horiz-adv-x="481" 
d="M347 670c-2 -5.33301 -4.16699 -10.668 -6.5 -16.001s-5 -10.166 -8 -14.499s-6.5 -8 -10.5 -11s-9.33301 -4.5 -16 -4.5c-8 0 -17 2.33301 -27 7s-20.5 9.83398 -31.5 15.501s-22.667 10.834 -35 15.501s-24.5 7 -36.5 7c-27.333 0 -48 -7.83301 -62 -23.5
s-26 -38.167 -36 -67.5l56 -21c4.66699 11.333 10 22 16 32s15 15 27 15c10 0 20.333 -2.33301 31 -7s21.667 -9.83398 33 -15.501s22.833 -10.834 34.5 -15.501s23.5 -7 35.5 -7c26.667 0 47 8.83301 61 26.5s24.667 39.167 32 64.5z" />
    <glyph glyph-name="hungarumlaut" unicode="&#x2dd;" horiz-adv-x="491" 
d="M413 695h-98l-60 -152h78zM224 695h-93l-53 -152h74z" />
    <glyph glyph-name="uni0312" unicode="&#x312;" horiz-adv-x="299" 
d="M78 543h101l42 152h-78z" />
    <glyph glyph-name="uni0315" unicode="&#x315;" horiz-adv-x="301" 
d="M224 666h-100l-46 -213h65z" />
    <glyph glyph-name="uni0326" unicode="&#x326;" horiz-adv-x="289" 
d="M211 -75h-98l-35 -175h71z" />
    <glyph glyph-name="uni037E" unicode="&#x37e;" horiz-adv-x="266" 
d="M139 282c18.667 0 33.667 5.83301 45 17.5s17 26.167 17 43.5s-5.66699 31.666 -17 42.999s-26.333 17 -45 17c-18 0 -32.667 -5.66699 -44 -17s-17 -25.666 -17 -42.999s5.66699 -31.833 17 -43.5s26 -17.5 44 -17.5zM87 112l-60 -252h66l96 252h-102z" />
    <glyph glyph-name="tonos" unicode="&#x384;" horiz-adv-x="301" 
d="M78 543h76l70 152h-110z" />
    <glyph glyph-name="dieresistonos" unicode="&#x385;" horiz-adv-x="488" 
d="M126 551c15.333 0 27.5 4.66699 36.5 14s13.5 20.666 13.5 33.999s-4.5 24.833 -13.5 34.5s-21.167 14.5 -36.5 14.5c-14.667 0 -26.334 -4.83301 -35.001 -14.5s-13 -21.167 -13 -34.5s4.33301 -24.666 13 -33.999s20.334 -14 35.001 -14zM198 543h54l59 162h-86z
M361 551c15.333 0 27.333 4.66699 36 14s13 20.666 13 33.999s-4.33301 24.833 -13 34.5s-20.667 14.5 -36 14.5c-14.667 0 -26.5 -4.83301 -35.5 -14.5s-13.5 -21.167 -13.5 -34.5s4.5 -24.666 13.5 -33.999s20.833 -14 35.5 -14z" />
    <glyph glyph-name="Alphatonos" unicode="&#x386;" horiz-adv-x="625" 
d="M17 0h89l61 175h291l62 -175h89l-248 666h-97zM313 596l120 -347h-240zM55 515h76l70 152h-110z" />
    <glyph glyph-name="anoteleia" unicode="&#x387;" 
d="M68 273c0 -17.333 5.33301 -31.5 16 -42.5s25 -16.5 43 -16.5s32.333 5.5 43 16.5s16 25.167 16 42.5s-5.33301 31.5 -16 42.5s-25 16.5 -43 16.5s-32.333 -5.5 -43 -16.5s-16 -25.167 -16 -42.5z" />
    <glyph glyph-name="Epsilontonos" unicode="&#x388;" horiz-adv-x="556" 
d="M78 0h430v76h-342v227h319v76h-319v211h341v76h-429v-666zM-111 515h76l70 152h-110z" />
    <glyph glyph-name="Etatonos" unicode="&#x389;" horiz-adv-x="671" 
d="M78 0h88v301h339v-301h88v666h-88v-287h-339v287h-88v-666zM-111 515h76l70 152h-110z" />
    <glyph glyph-name="Iotatonos" unicode="&#x38a;" 
d="M83 0h88v666h-88v-666zM-111 515h76l70 152h-110z" />
    <glyph glyph-name="Omicrontonos" unicode="&#x38c;" horiz-adv-x="692" 
d="M43 333c0 -46 6.16699 -90 18.5 -132s31 -78.667 56 -110s56.5 -56.333 94.5 -75s82.667 -28 134 -28s96 9.33301 134 28s69.5 43.667 94.5 75s43.667 68 56 110s18.5 86 18.5 132s-6.16699 90 -18.5 132s-31 78.667 -56 110s-56.5 56.333 -94.5 75s-82.667 28 -134 28
s-96 -9.33301 -134 -28s-69.5 -43.667 -94.5 -75s-43.667 -68 -56 -110s-18.5 -86 -18.5 -132zM346 61c-37.333 0 -69.5 6.66699 -96.5 20s-49.167 32 -66.5 56s-30.333 52.667 -39 86s-13 70 -13 110s4.33301 76.667 13 110s21.667 62 39 86s39.5 42.667 66.5 56
s59.167 20 96.5 20c36.667 0 68.667 -6.66699 96 -20s49.666 -32 66.999 -56s30.333 -52.667 39 -86s13 -70 13 -110s-4.33301 -76.667 -13 -110s-21.667 -62 -39 -86s-39.666 -42.667 -66.999 -56s-59.333 -20 -96 -20zM-73 515h76l70 152h-110z" />
    <glyph glyph-name="Upsilontonos" unicode="&#x38e;" horiz-adv-x="547" 
d="M537 666h-92l-171 -319l-171 319h-93l220 -397v-269h88v269zM-161 515h76l70 152h-110z" />
    <glyph glyph-name="Omegatonos" unicode="&#x38f;" horiz-adv-x="729" 
d="M655 369c0 47.333 -7.33496 90.002 -22.002 128.002s-35.167 70.5 -61.5 97.5s-58.166 47.667 -95.499 62s-79 21.5 -125 21.5c-45.333 0 -86.666 -7.16699 -123.999 -21.5s-69.333 -35 -96 -62s-47.167 -59.5 -61.5 -97.5s-21.5 -80.667 -21.5 -128
c0 -66 13 -123.167 39 -171.5s59.667 -90.833 101 -127.5h-125v-70h219v70c-48 38.667 -84.667 81.667 -110 129s-38 102.333 -38 165c0 76.667 18.5 136.5 55.5 179.5s90.833 64.5 161.5 64.5s124.667 -21.5 162 -64.5s56 -102.833 56 -179.5
c0 -62.667 -12.667 -117.667 -38 -165s-62 -90.333 -110 -129v-70h219v70h-125c20.667 18.667 39.5 38.5 56.5 59.5s31.667 43.667 44 68s22 50.666 29 78.999s10.5 59.166 10.5 92.499zM-67.002 515.002h76l70 152h-110z" />
    <glyph glyph-name="iotadieresistonos" unicode="&#x390;" horiz-adv-x="284" 
d="M65 110c0 -38.667 8.5 -68.333 25.5 -89s46.167 -31 87.5 -31c33.333 0 61 3.33301 83 10c-0.666992 11.333 -1 22 -1 32c-0.666992 8 -1 15.833 -1 23.5v13.5c-18 -4 -36.333 -6 -55 -6c-20 0 -33.167 4.5 -39.5 13.5s-9.5 23.5 -9.5 43.5v358h-90v-368zM10 551.001
c15.333 0 27.5 4.66699 36.5 14s13.5 20.666 13.5 33.999s-4.5 24.833 -13.5 34.5s-21.167 14.5 -36.5 14.5c-14.667 0 -26.334 -4.83301 -35.001 -14.5s-13 -21.167 -13 -34.5s4.33301 -24.666 13 -33.999s20.334 -14 35.001 -14zM82 543.001h54l59 162h-86zM245 551.001
c15.333 0 27.333 4.66699 36 14s13 20.666 13 33.999s-4.33301 24.833 -13 34.5s-20.667 14.5 -36 14.5c-14.667 0 -26.5 -4.83301 -35.5 -14.5s-13.5 -21.167 -13.5 -34.5s4.5 -24.666 13.5 -33.999s20.833 -14 35.5 -14z" />
    <glyph glyph-name="Alpha" unicode="&#x391;" horiz-adv-x="625" 
d="M17 0h89l61 175h291l62 -175h89l-248 666h-97zM313 596l120 -347h-240z" />
    <glyph glyph-name="Beta" unicode="&#x392;" horiz-adv-x="604" 
d="M78 0h275.001c32 -0 60.833 4.33301 86.5 13s47.834 20.834 66.501 36.501s33 34.667 43 57s15 47.166 15 74.499c0 45.333 -13.333 81.333 -40 108s-61.334 43.667 -104.001 51c41.333 14 72.166 35.5 92.499 64.5s30.5 62.5 30.5 100.5c0 49.333 -16 88.5 -48 117.5
s-78.667 43.5 -140 43.5h-277v-666zM164.001 371v225.001h171c40 0 70.333 -9.33301 91 -28s31 -44 31 -76c0 -16.667 -2.83301 -32.334 -8.5 -47.001s-14 -27.5 -25 -38.5s-24.667 -19.667 -41 -26s-34.833 -9.5 -55.5 -9.5h-163zM164.001 70.001v231h170
c48 0 83.833 -10.167 107.5 -30.5s35.5 -47.833 35.5 -82.5s-10.833 -63 -32.5 -85s-55.5 -33 -101.5 -33h-179z" />
    <glyph glyph-name="Gamma" unicode="&#x393;" horiz-adv-x="515" 
d="M78 0h88v590h323v76h-411v-666z" />
    <glyph glyph-name="uni0394" unicode="&#x394;" horiz-adv-x="631" 
d="M22 0h587v39l-247 627h-94l-246 -627v-39zM124 75l190 512l191 -512h-381z" />
    <glyph glyph-name="Epsilon" unicode="&#x395;" horiz-adv-x="556" 
d="M78 0h430v76h-342v227h319v76h-319v211h341v76h-429v-666z" />
    <glyph glyph-name="Zeta" unicode="&#x396;" horiz-adv-x="573" 
d="M525 0v76h-377l368 512v78h-452v-76h357l-368 -512v-78h472z" />
    <glyph glyph-name="Eta" unicode="&#x397;" horiz-adv-x="671" 
d="M78 0h88v301h339v-301h88v666h-88v-287h-339v287h-88v-666z" />
    <glyph glyph-name="Theta" unicode="&#x398;" horiz-adv-x="692" 
d="M198 307h296v65h-296v-65zM43 333c0 -46 6.16699 -90 18.5 -132s31 -78.667 56 -110s56.5 -56.333 94.5 -75s82.667 -28 134 -28s96 9.33301 134 28s69.5 43.667 94.5 75s43.667 68 56 110s18.5 86 18.5 132s-6.16699 90 -18.5 132s-31 78.667 -56 110
s-56.5 56.333 -94.5 75s-82.667 28 -134 28s-96 -9.33301 -134 -28s-69.5 -43.667 -94.5 -75s-43.667 -68 -56 -110s-18.5 -86 -18.5 -132zM346 61c-37.333 0 -69.5 6.66699 -96.5 20s-49.167 32 -66.5 56s-30.333 52.667 -39 86s-13 70 -13 110s4.33301 76.667 13 110
s21.667 62 39 86s39.5 42.667 66.5 56s59.167 20 96.5 20c36.667 0 68.667 -6.66699 96 -20s49.666 -32 66.999 -56s30.333 -52.667 39 -86s13 -70 13 -110s-4.33301 -76.667 -13 -110s-21.667 -62 -39 -86s-39.666 -42.667 -66.999 -56s-59.333 -20 -96 -20z" />
    <glyph glyph-name="Iota" unicode="&#x399;" 
d="M83 0h88v666h-88v-666z" />
    <glyph glyph-name="Kappa" unicode="&#x39a;" horiz-adv-x="591" 
d="M78 0h88v324l295 -324h114l-317 342l313 324h-114l-291 -306v306h-88v-666z" />
    <glyph glyph-name="Lambda" unicode="&#x39b;" horiz-adv-x="595" 
d="M9 0h90l197 585l199 -585h91l-238 666h-101z" />
    <glyph glyph-name="Mu" unicode="&#x39c;" horiz-adv-x="800" 
d="M722 666h-87l-235 -503l-235 503h-87v-666h83v500l194 -416h90l194 416v-500h83v666z" />
    <glyph glyph-name="Nu" unicode="&#x39d;" horiz-adv-x="693" 
d="M78 0h85v529l365 -529h87v666h-85v-529l-365 529h-87v-666z" />
    <glyph glyph-name="Xi" unicode="&#x39e;" horiz-adv-x="564" 
d="M49 -1h466v79h-466v-79zM105 300h354v76h-354v-76zM49 588h466v78h-466v-78z" />
    <glyph glyph-name="Omicron" unicode="&#x39f;" horiz-adv-x="692" 
d="M43 333c0 -46 6.16699 -90 18.5 -132s31 -78.667 56 -110s56.5 -56.333 94.5 -75s82.667 -28 134 -28s96 9.33301 134 28s69.5 43.667 94.5 75s43.667 68 56 110s18.5 86 18.5 132s-6.16699 90 -18.5 132s-31 78.667 -56 110s-56.5 56.333 -94.5 75s-82.667 28 -134 28
s-96 -9.33301 -134 -28s-69.5 -43.667 -94.5 -75s-43.667 -68 -56 -110s-18.5 -86 -18.5 -132zM346 61c-37.333 0 -69.5 6.66699 -96.5 20s-49.167 32 -66.5 56s-30.333 52.667 -39 86s-13 70 -13 110s4.33301 76.667 13 110s21.667 62 39 86s39.5 42.667 66.5 56
s59.167 20 96.5 20c36.667 0 68.667 -6.66699 96 -20s49.666 -32 66.999 -56s30.333 -52.667 39 -86s13 -70 13 -110s-4.33301 -76.667 -13 -110s-21.667 -62 -39 -86s-39.666 -42.667 -66.999 -56s-59.333 -20 -96 -20z" />
    <glyph glyph-name="Pi" unicode="&#x3a0;" horiz-adv-x="662" 
d="M78 0h88v590h329v-590h89v666h-506v-666z" />
    <glyph glyph-name="Rho" unicode="&#x3a1;" horiz-adv-x="586" 
d="M78 0l88 0.00195312v264h180c34 0 64.167 5.33301 90.5 16s48.5 25.167 66.5 43.5s31.667 39.666 41 63.999s14 50.166 14 77.499c0 28 -4.66699 54.167 -14 78.5s-23 45.5 -41 63.5s-40.167 32.333 -66.5 43s-56.5 16 -90.5 16h-268v-666zM166 336.002v258h170
c42 0 74.667 -11.5 98 -34.5s35 -54.5 35 -94.5s-11.667 -71.5 -35 -94.5s-56 -34.5 -98 -34.5h-170z" />
    <glyph glyph-name="Sigma" unicode="&#x3a3;" horiz-adv-x="580" 
d="M38 0h494v76h-379l197 264l-180 250h349v76h-469v-61l199 -276l-211 -277v-52z" />
    <glyph glyph-name="Tau" unicode="&#x3a4;" horiz-adv-x="532" 
d="M511 590v76h-490v-76h201v-590h88v590h201z" />
    <glyph glyph-name="Upsilon" unicode="&#x3a5;" horiz-adv-x="547" 
d="M537 666h-92l-171 -319l-171 319h-93l220 -397v-269h88v269z" />
    <glyph glyph-name="Phi" unicode="&#x3a6;" horiz-adv-x="765" 
d="M339 0l88 -0.00195312v69c47.333 2 89.333 10.167 126 24.5s67.5 33.333 92.5 57s44 51.334 57 83.001s19.5 66.5 19.5 104.5c0 37.333 -6.5 72 -19.5 104s-32 59.833 -57 83.5s-55.833 42.834 -92.5 57.501s-78.667 23.334 -126 26.001v59h-88v-60
c-47.333 -2.66699 -89.333 -11.167 -126 -25.5s-67.667 -33.333 -93 -57s-44.5 -51.334 -57.5 -83.001s-19.5 -66.5 -19.5 -104.5c0 -37.333 6.5 -72 19.5 -104s32 -59.833 57 -83.5s55.833 -42.667 92.5 -57s79 -22.5 127 -24.5v-69zM339 141.998
c-66 2 -117.5 20.332 -154.5 54.999s-55.5 81.667 -55.5 141c0 27.333 4.83301 52.833 14.5 76.5s23.5 44.334 41.5 62.001s40 31.667 66 42s55.333 15.833 88 16.5v-393zM427 141.997v392.998c32.667 -1.33301 62 -7.16602 88 -17.499s48 -24.166 66 -41.499
s31.667 -37.833 41 -61.5s14 -49.167 14 -76.5c0 -59.333 -18.667 -106.333 -56 -141s-88.333 -53 -153 -55z" />
    <glyph glyph-name="Chi" unicode="&#x3a7;" horiz-adv-x="588" 
d="M559 666h-96l-169 -259l-169 259h-96l218 -328l-224 -338h95l176 268l176 -268h95l-224 338z" />
    <glyph glyph-name="Psi" unicode="&#x3a8;" horiz-adv-x="771" 
d="M342 0h88.002v135c94 2.66699 161.667 26.667 203 72s62 109.333 62 192v267h-88v-258c0 -30.667 -3 -58.334 -9 -83.001s-16 -45.667 -30 -63s-32.333 -31 -55 -41s-50.334 -15.333 -83.001 -16v461h-88v-460c-33.333 0.666992 -61.166 6 -83.499 16
s-40.333 23.667 -54 41s-23.5 38.166 -29.5 62.499s-9 51.833 -9 82.5v258h-89v-267c0 -41.333 5 -78 15 -110s25.667 -59.167 47 -81.5s48.666 -39.666 81.999 -51.999s73.666 -19.166 120.999 -20.499v-135z" />
    <glyph glyph-name="uni03A9" unicode="&#x3a9;" horiz-adv-x="703" 
d="M655 369c0 47.333 -7.33496 90.002 -22.002 128.002s-35.167 70.5 -61.5 97.5s-58.166 47.667 -95.499 62s-79 21.5 -125 21.5c-45.333 0 -86.666 -7.16699 -123.999 -21.5s-69.333 -35 -96 -62s-47.167 -59.5 -61.5 -97.5s-21.5 -80.667 -21.5 -128
c0 -66 13 -123.167 39 -171.5s59.667 -90.833 101 -127.5h-125v-70h219v70c-48 38.667 -84.667 81.667 -110 129s-38 102.333 -38 165c0 76.667 18.5 136.5 55.5 179.5s90.833 64.5 161.5 64.5s124.667 -21.5 162 -64.5s56 -102.833 56 -179.5
c0 -62.667 -12.667 -117.667 -38 -165s-62 -90.333 -110 -129v-70h219v70h-125c20.667 18.667 39.5 38.5 56.5 59.5s31.667 43.667 44 68s22 50.666 29 78.999s10.5 59.166 10.5 92.499z" />
    <glyph glyph-name="Iotadieresis" unicode="&#x3aa;" 
d="M83 0h88v666h-88v-666zM174 794c0 -15.333 4.66699 -27.666 14 -36.999s22 -14 38 -14c16.667 0 29.667 4.66699 39 14s14 21.666 14 36.999s-4.66699 27.666 -14 36.999s-22.333 14 -39 14c-16 0 -28.667 -4.66699 -38 -14s-14 -21.666 -14 -36.999zM-21 794
c0 -15.333 4.66699 -27.666 14 -36.999s22 -14 38 -14c16.667 0 29.667 4.66699 39 14s14 21.666 14 36.999s-4.66699 27.666 -14 36.999s-22.333 14 -39 14c-16 0 -28.667 -4.66699 -38 -14s-14 -21.666 -14 -36.999z" />
    <glyph glyph-name="Upsilondieresis" unicode="&#x3ab;" horiz-adv-x="547" 
d="M537 666h-92l-171 -319l-171 319h-93l220 -397v-269h88v269zM319 794c0 -15.333 4.66699 -27.666 14 -36.999s22 -14 38 -14c16.667 0 29.667 4.66699 39 14s14 21.666 14 36.999s-4.66699 27.666 -14 36.999s-22.333 14 -39 14c-16 0 -28.667 -4.66699 -38 -14
s-14 -21.666 -14 -36.999zM124 794c0 -15.333 4.66699 -27.666 14 -36.999s22 -14 38 -14c16.667 0 29.667 4.66699 39 14s14 21.666 14 36.999s-4.66699 27.666 -14 36.999s-22.333 14 -39 14c-16 0 -28.667 -4.66699 -38 -14s-14 -21.666 -14 -36.999z" />
    <glyph glyph-name="alphatonos" unicode="&#x3ac;" horiz-adv-x="579" 
d="M234 -10c14.667 0 28.9971 1.83301 42.9971 5.5s27.667 10 41 19s26 21 38 36s23.333 33.833 34 56.5c7.33301 -42.667 20.833 -72.334 40.5 -89.001s46.5 -25 80.5 -25c8.66699 0 17.5 0.833008 26.5 2.5s17.5 3.16699 25.5 4.5c0 1.33301 -0.166992 5.33301 -0.5 12
s-0.666016 14 -0.999023 22s-0.666016 15.333 -0.999023 22s-0.5 10.667 -0.5 12c-12 -2 -21.333 -3 -28 -3c-26 0 -44.167 10.5 -54.5 31.5s-15.5 53.5 -15.5 97.5c0 25.333 1.5 50.666 4.5 75.999s7 49.833 12 73.5s10.667 45.834 17 66.501s13.166 39 20.499 55l-83 23
c-5.33301 -10 -11.166 -25.167 -17.499 -45.5s-11.833 -42.833 -16.5 -67.5c-13.333 38 -33.333 66.333 -60 85s-59 28 -97 28c-28.667 0 -55.334 -5.5 -80.001 -16.5s-46.167 -27.167 -64.5 -48.5s-32.666 -48 -42.999 -80s-15.5 -69 -15.5 -111
c0 -41.333 5 -77.166 15 -107.499s23.833 -55.5 41.5 -75.5s38.334 -34.833 62.001 -44.5s49.167 -14.5 76.5 -14.5zM249.997 63c-36 0 -65.001 14.668 -87.001 44.001s-33 72.333 -33 129c0 60 11.667 104.833 35 134.5s52.666 44.5 87.999 44.5
c22 0 40.833 -4.5 56.5 -13.5s28.667 -21.333 39 -37s18 -33.667 23 -54s7.5 -41.5 7.5 -63.5c0 -18.667 -2.33301 -38.834 -7 -60.501s-12.167 -41.667 -22.5 -60s-23.666 -33.5 -39.999 -45.5s-36.166 -18 -59.499 -18zM225.996 543.001h76l70 152h-110z" />
    <glyph glyph-name="epsilontonos" unicode="&#x3ad;" horiz-adv-x="448" 
d="M227 -10c32.667 0 65.5059 3.33203 98.5059 9.99902s64.167 16.334 93.5 29.001l-14 66c-22.667 -7.33301 -48 -14.333 -76 -21s-58 -10 -90 -10c-38 0 -66.5 6.66699 -85.5 20s-28.5 31.333 -28.5 54c0 10 1.66699 19.333 5 28s9.16602 16.5 17.499 23.5
s19.166 12.5 32.499 16.5s30 6 50 6h86v69h-79c-26.667 0 -49 5.5 -67 16.5s-27 27.167 -27 48.5c0 18.667 7.83301 35.167 23.5 49.5s43.167 21.5 82.5 21.5c27.333 0 51.166 -2.16699 71.499 -6.5s41.5 -11.166 63.5 -20.499l19 69c-20 9.33301 -43.833 16.5 -71.5 21.5
s-57.834 7.5 -90.501 7.5c-25.333 0 -49.5 -2.83301 -72.5 -8.5s-43.167 -14.334 -60.5 -26.001s-31 -25.834 -41 -42.501s-15 -36 -15 -58c0 -25.333 6.83301 -46.166 20.5 -62.499s36.5 -29.833 68.5 -40.5c-37.333 -8.66699 -64.5 -25 -81.5 -49s-25.5 -49.667 -25.5 -77
c0 -24 5 -44.5 15 -61.5s23.667 -30.833 41 -41.5s37.666 -18.5 60.999 -23.5s48.666 -7.5 75.999 -7.5zM201.006 542.999h76l70 152h-110z" />
    <glyph glyph-name="etatonos" unicode="&#x3ae;" horiz-adv-x="557" 
d="M88 0l89.999 -0.00292969v271c0 19.333 3.33301 37.666 10 54.999s15.667 32.5 27 45.5s25 23.167 41 30.5s33.333 11 52 11c12.667 0 24.834 -1.66699 36.501 -5s21.667 -9.33301 30 -18s15 -20 20 -34s7.5 -31.667 7.5 -53v-481h90v501
c0 30.667 -3.66699 56.5 -11 77.5s-18 38 -32 51s-31 22.333 -51 28s-42.333 8.5 -67 8.5c-33.333 0 -64.5 -9.16699 -93.5 -27.5s-54.5 -48.166 -76.5 -89.499c-1.33301 11.333 -4 22.833 -8 34.5s-8.83301 22.834 -14.5 33.501s-12.167 20.334 -19.5 29.001
s-15.333 15.334 -24 20.001l-57 -52c20 -22 33.333 -46.5 40 -73.5s10 -61.167 10 -102.5v-260zM212.999 542.997h76l70 152h-110z" />
    <glyph glyph-name="iotatonos" unicode="&#x3af;" horiz-adv-x="284" 
d="M65 110c0 -38.667 8.5 -68.333 25.5 -89s46.167 -31 87.5 -31c33.333 0 61 3.33301 83 10c-0.666992 11.333 -1 22 -1 32c-0.666992 8 -1 15.833 -1 23.5v13.5c-18 -4 -36.333 -6 -55 -6c-20 0 -33.167 4.5 -39.5 13.5s-9.5 23.5 -9.5 43.5v358h-90v-368zM73 543.001h76
l70 152h-110z" />
    <glyph glyph-name="upsilondieresistonos" unicode="&#x3b0;" horiz-adv-x="521" 
d="M73 194c0 -39.333 4.83105 -72.002 14.498 -98.002s23.167 -46.833 40.5 -62.5s38 -26.834 62 -33.501s50.333 -10 79 -10c72.667 0 125.334 23.333 158.001 70s49 110.334 49 191.001c0 25.333 -1.83301 58.666 -5.5 99.999s-14.167 87 -31.5 137l-87 -24
c14 -39.333 23.333 -78.333 28 -117s7 -76 7 -112c0 -54 -8.66699 -95.5 -26 -124.5s-47.666 -43.5 -90.999 -43.5c-33.333 0 -59.833 9.83301 -79.5 29.5s-29.5 54.5 -29.5 104.5v61c0 28.667 -0.666992 54.334 -2 77.001s-3.16602 42.834 -5.49902 60.501
s-5.66602 33.667 -9.99902 48s-9.5 27.833 -15.5 40.5l-88 -24c6 -13.333 11.167 -27.166 15.5 -41.499s7.66602 -30.333 9.99902 -48s4.16602 -37.167 5.49902 -58.5s2 -46 2 -74v-48zM137.998 550.998c15.333 0 27.5 4.66699 36.5 14s13.5 20.666 13.5 33.999
s-4.5 24.833 -13.5 34.5s-21.167 14.5 -36.5 14.5c-14.667 0 -26.334 -4.83301 -35.001 -14.5s-13 -21.167 -13 -34.5s4.33301 -24.666 13 -33.999s20.334 -14 35.001 -14zM209.998 542.998h54l59 162h-86zM372.998 550.998c15.333 0 27.333 4.66699 36 14
s13 20.666 13 33.999s-4.33301 24.833 -13 34.5s-20.667 14.5 -36 14.5c-14.667 0 -26.5 -4.83301 -35.5 -14.5s-13.5 -21.167 -13.5 -34.5s4.5 -24.666 13.5 -33.999s20.833 -14 35.5 -14z" />
    <glyph glyph-name="alpha" unicode="&#x3b1;" horiz-adv-x="579" 
d="M234 -10c14.667 0 28.9971 1.83301 42.9971 5.5s27.667 10 41 19s26 21 38 36s23.333 33.833 34 56.5c7.33301 -42.667 20.833 -72.334 40.5 -89.001s46.5 -25 80.5 -25c8.66699 0 17.5 0.833008 26.5 2.5s17.5 3.16699 25.5 4.5c0 1.33301 -0.166992 5.33301 -0.5 12
s-0.666016 14 -0.999023 22s-0.666016 15.333 -0.999023 22s-0.5 10.667 -0.5 12c-12 -2 -21.333 -3 -28 -3c-26 0 -44.167 10.5 -54.5 31.5s-15.5 53.5 -15.5 97.5c0 25.333 1.5 50.666 4.5 75.999s7 49.833 12 73.5s10.667 45.834 17 66.501s13.166 39 20.499 55l-83 23
c-5.33301 -10 -11.166 -25.167 -17.499 -45.5s-11.833 -42.833 -16.5 -67.5c-13.333 38 -33.333 66.333 -60 85s-59 28 -97 28c-28.667 0 -55.334 -5.5 -80.001 -16.5s-46.167 -27.167 -64.5 -48.5s-32.666 -48 -42.999 -80s-15.5 -69 -15.5 -111
c0 -41.333 5 -77.166 15 -107.499s23.833 -55.5 41.5 -75.5s38.334 -34.833 62.001 -44.5s49.167 -14.5 76.5 -14.5zM249.997 63c-36 0 -65.001 14.668 -87.001 44.001s-33 72.333 -33 129c0 60 11.667 104.833 35 134.5s52.666 44.5 87.999 44.5
c22 0 40.833 -4.5 56.5 -13.5s28.667 -21.333 39 -37s18 -33.667 23 -54s7.5 -41.5 7.5 -63.5c0 -18.667 -2.33301 -38.834 -7 -60.501s-12.167 -41.667 -22.5 -60s-23.666 -33.5 -39.999 -45.5s-36.166 -18 -59.499 -18z" />
    <glyph glyph-name="beta" unicode="&#x3b2;" horiz-adv-x="552" 
d="M73 -178h90v235c18 -23.333 38.5 -40.333 61.5 -51s49.5 -16 79.5 -16c38 0 70 6.83301 96 20.5s47.167 30.834 63.5 51.501s28 42.667 35 66s10.5 45 10.5 65c0 42.667 -10.333 79.334 -31 110.001s-55.667 53.667 -105 69c12 7.33301 23.333 15.666 34 24.999
s20.334 20 29.001 32s15.5 25.5 20.5 40.5s7.5 32.167 7.5 51.5c0 16 -2.66699 33 -8 51s-14.833 34.667 -28.5 50s-32.334 28.166 -56.001 38.499s-53.834 15.5 -90.501 15.5c-22 0 -45.333 -3.66699 -70 -11s-47.167 -20 -67.5 -38s-37.166 -42.667 -50.499 -74
s-20 -71 -20 -119v-612zM289 63c-40 0 -71 11.3301 -93 33.9971s-33 50.334 -33 83.001v261c0 58 11.333 99.5 34 124.5s51 37.5 85 37.5c32 0 57 -8.83301 75 -26.5s27 -42.167 27 -73.5c0 -32 -9.83301 -57.833 -29.5 -77.5s-45.5 -29.5 -77.5 -29.5h-33v-68h38
c45.333 0 78.833 -13.167 100.5 -39.5s32.5 -58.5 32.5 -96.5c0 -16 -2.5 -31.667 -7.5 -47s-12.5 -29.166 -22.5 -41.499s-23 -22.166 -39 -29.499s-35 -11 -57 -11z" />
    <glyph glyph-name="gamma" unicode="&#x3b3;" horiz-adv-x="517" 
d="M235 -167l90.001 -0.000976562v172l181 473h-89l-135 -390l-111 316c-5.33301 14.667 -10.666 27.167 -15.999 37.5s-11.833 18.833 -19.5 25.5s-16.5 11.334 -26.5 14.001s-22 4 -36 4c-10.667 0 -20.834 -0.833008 -30.501 -2.5s-18.834 -3.5 -27.501 -5.5v-13
c0 -7.33301 0.333008 -15 1 -23c0 -9.33301 0.333008 -20 1 -32c5.33301 1.33301 10 2.33301 14 3s7.66699 1 11 1c13.333 0 23.333 -4.66699 30 -14s14.667 -25 24 -47l139 -348v-171z" />
    </font>
</defs>
</svg>
